<?xml version="1.0" standalone="no"?>
<!DOCTYPE svg PUBLIC "-//W3C//DTD SVG 1.1//EN" "http://www.w3.org/Graphics/SVG/1.1/DTD/svg11.dtd" >
<svg xmlns="http://www.w3.org/2000/svg">
<metadata></metadata>
<defs>
<font id="rubrik_regularregular" horiz-adv-x="1150" >
<font-face units-per-em="2048" ascent="1536" descent="-512" />
<missing-glyph horiz-adv-x="559" />
<glyph unicode="&#xfb01;" horiz-adv-x="1361" d="M76 967q0 32 23.5 53.5t56.5 21.5h71v95q0 154 83 243.5t239 89.5q109 0 180 -22q66 -18 66 -78q0 -29 -21 -51.5t-59 -22.5q-20 0 -72.5 9.5t-89.5 9.5q-160 0 -160 -191v-82h287q33 0 56.5 -21.5t23.5 -53.5t-23.5 -54t-56.5 -22h-287v-813q0 -37 -23.5 -61.5 t-58.5 -24.5t-59.5 24.5t-24.5 61.5v813h-71q-33 0 -56.5 22t-23.5 54zM981 1346q0 43 28.5 72.5t71.5 29.5t73 -29.5t30 -72.5q0 -42 -30.5 -73.5t-72.5 -31.5t-71 31.5t-29 73.5zM999 78v913q0 36 23.5 61t58.5 25t59.5 -25.5t24.5 -60.5v-913q0 -37 -23.5 -61.5 t-60.5 -24.5q-33 0 -57.5 25t-24.5 61z" />
<glyph horiz-adv-x="2048" />
<glyph horiz-adv-x="2048" />
<glyph unicode="&#xd;" horiz-adv-x="2048" />
<glyph unicode=" "  horiz-adv-x="559" />
<glyph unicode="&#x09;" horiz-adv-x="559" />
<glyph unicode="&#xa0;" horiz-adv-x="559" />
<glyph unicode="!" horiz-adv-x="440" d="M135 63v109q0 33 26 57.5t60 24.5t59 -24t25 -58v-109q0 -33 -25 -57t-59 -24t-60 24.5t-26 56.5zM137 1350q0 35 24.5 60.5t59.5 25.5q34 0 58 -25.5t24 -60.5l-10 -811q0 -31 -21.5 -52.5t-52.5 -21.5q-29 0 -50.5 22.5t-21.5 51.5z" />
<glyph unicode="&#x22;" horiz-adv-x="714" d="M135 1075v279q0 34 24 58t58 24t57 -24t23 -58v-279q0 -34 -23 -57t-57 -23t-58 23t-24 57zM418 1075v279q0 34 23 58t57 24q35 0 58.5 -24t23.5 -58v-279q0 -34 -23.5 -57t-58.5 -23q-34 0 -57 23t-23 57z" />
<glyph unicode="#" horiz-adv-x="1314" d="M94 500q0 33 23 54t59 21h166l98 310h-118q-35 0 -58.5 22t-23.5 54q0 33 23 54t59 21h170l118 361q17 53 68 53q44 0 64 -35t6 -76l-99 -303h217l119 361q17 53 70 53q43 0 62.5 -34.5t6.5 -76.5l-100 -303h115q36 0 59 -21t23 -54q0 -32 -24 -54t-58 -22h-168l-99 -310 h121q36 0 59 -21t23 -54q0 -32 -24 -54t-58 -22h-172l-125 -387q-18 -55 -69 -55q-43 0 -63.5 34.5t-6.5 75.5l107 332h-220l-125 -387q-15 -55 -67 -55q-44 0 -64 34.5t-6 75.5l107 332h-115q-34 0 -57 22t-23 54zM498 575h219l98 310h-219z" />
<glyph unicode="$" horiz-adv-x="1247" d="M133 250q0 35 26 59.5t60 24.5q28 0 60 -25q70 -52 166 -85.5t196 -33.5q147 0 228 57.5t81 168.5q0 93 -75 141.5t-293 95.5q-229 48 -330.5 135t-101.5 242q0 154 109 255t288 116v133q0 33 23 56.5t53 23.5q32 0 53.5 -23t21.5 -57v-133q185 -25 293 -111 q31 -25 31 -67q0 -32 -24.5 -55t-59.5 -23q-17 0 -57 22q-125 78 -271 78q-82 0 -141.5 -18.5t-90.5 -50.5t-45 -66.5t-14 -73.5q0 -37 8.5 -66t28.5 -51t42 -37t61 -28.5t72.5 -22t89.5 -20.5q267 -56 383 -144t116 -251t-118.5 -268.5t-303.5 -114.5v-135q0 -34 -21.5 -57 t-53.5 -23q-30 0 -53 24t-23 56v139q-208 19 -369 137q-45 31 -45 76z" />
<glyph unicode="%" horiz-adv-x="1531" d="M80 1047q-3 53 0 102q5 127 93.5 215t213.5 88t212 -88t93 -215q3 -51 0 -102q-8 -127 -94.5 -215.5t-210.5 -88.5q-125 0 -213 89t-94 215zM231 1053q5 -69 48 -113.5t108 -44.5t108 45t48 115q3 39 0 88q-5 69 -48 114.5t-108 45.5t-107.5 -45.5t-48.5 -114.5 q-3 -45 0 -90zM295 255.5q-1 32.5 20 55.5l801 926q21 24 54.5 26.5t56.5 -18.5q24 -21 25.5 -53.5t-19.5 -56.5q-229 -260 -803 -926q-22 -22 -54 -24.5t-57 18.5q-23 20 -24 52.5zM838 283q-3 53 0 102q6 126 95 214.5t214 88.5q123 0 211 -88.5t94 -214.5q3 -51 0 -102 q-8 -126 -95 -214.5t-210 -88.5q-125 0 -213 88.5t-96 214.5zM991 289q5 -68 47.5 -113t106.5 -45q65 0 107.5 44.5t47.5 113.5q3 42 0 90q-5 69 -47.5 114.5t-107.5 45.5q-63 0 -105.5 -45.5t-48.5 -114.5q-3 -45 0 -90z" />
<glyph unicode="&#x26;" horiz-adv-x="1421" d="M100 381q0 129 65.5 216.5t205.5 141.5q-90 66 -136.5 142.5t-46.5 179.5q0 165 124 272t319 107q205 0 326.5 -104t121.5 -265q0 -170 -108 -263t-350 -149q-198 -43 -273.5 -105t-75.5 -169q0 -110 95 -177t266 -67q180 0 285.5 96t111.5 250q6 144 131 144h160 q36 0 61 -23.5t25 -58.5q0 -34 -24.5 -59t-59.5 -25h-137q-15 -225 -167 -354t-382 -129q-255 0 -396 111.5t-141 287.5zM358 1055q0 -39 12.5 -73.5t30.5 -59t47 -48t52 -38t55 -31.5q207 40 280.5 93t73.5 163q0 91 -69 155t-207 64q-133 0 -204 -63.5t-71 -161.5z" />
<glyph unicode="'" horiz-adv-x="434" d="M135 1075v279q0 34 24 58t58 24t57 -24t23 -58v-279q0 -34 -23 -57t-57 -23t-58 23t-24 57z" />
<glyph unicode="(" horiz-adv-x="718" d="M162 633q0 273 106 526.5t310 442.5q32 26 65 20t53 -35q15 -25 11.5 -53.5t-23.5 -48.5q-175 -164 -266.5 -385.5t-91.5 -466.5t91.5 -466.5t266.5 -385.5q20 -20 23.5 -49t-11.5 -54q-20 -29 -53 -35t-65 19q-204 191 -310 444.5t-106 526.5z" />
<glyph unicode=")" horiz-adv-x="718" d="M11.5 -268q3.5 29 23.5 49q175 164 266.5 385.5t91.5 466.5t-91.5 466.5t-266.5 385.5q-20 20 -23.5 48.5t11.5 53.5q20 29 53 35t65 -20q204 -189 310 -442.5t106 -526.5t-106 -526.5t-310 -444.5q-32 -25 -65 -19t-53 35q-15 25 -11.5 54z" />
<glyph unicode="*" horiz-adv-x="796" d="M82.5 969q10.5 27 36.5 39l170 84l-170 86q-26 13 -36.5 38.5t5.5 59.5q14 25 44 30t56 -14q1 -1 4 -2.5t13 -8.5t24 -16.5t44 -29t67 -43.5l-10 172q-1 35 19.5 56.5t49.5 21.5t50 -21.5t20 -56.5l-10 -172q37 24 66.5 43.5t44 29.5t24 16.5t12.5 8t4 2.5q26 19 56.5 14 t44.5 -30q16 -34 5.5 -59.5t-36.5 -38.5l-170 -86l170 -84q26 -12 36.5 -39t-5.5 -60q-13 -25 -43 -29t-58 13l-153 96l12 -172q3 -35 -18.5 -56.5t-51.5 -21.5t-51 21.5t-18 56.5l12 172l-154 -96q-28 -17 -57.5 -13t-42.5 29q-16 33 -5.5 60z" />
<glyph unicode="+" horiz-adv-x="1286" d="M123 717q0 35 24.5 58.5t59.5 23.5h356v356q0 35 24 59.5t58 24.5q35 0 58.5 -24.5t23.5 -59.5v-356h352q35 0 59.5 -23.5t24.5 -58.5q0 -33 -25 -56.5t-59 -23.5h-352v-358q0 -35 -23.5 -59.5t-58.5 -24.5t-58.5 24.5t-23.5 59.5v358h-356q-35 0 -59.5 23t-24.5 57z" />
<glyph unicode="," horiz-adv-x="438" d="M88 -117q0 18 7.5 35.5t16 32t16 45t7.5 72.5v106q0 34 24.5 58t59.5 24q34 0 59 -24t25 -58v-53q0 -86 -10 -142.5t-41 -113.5q-32 -58 -88 -58q-32 0 -54 23.5t-22 52.5z" />
<glyph unicode="-" horiz-adv-x="694" d="M104 586q0 35 25.5 59.5t60.5 24.5h314q35 0 60.5 -24.5t25.5 -59.5t-25 -58.5t-61 -23.5h-314q-35 0 -60.5 24t-25.5 58z" />
<glyph unicode="." horiz-adv-x="542" d="M135 68v110q0 35 24.5 60.5t59.5 25.5t59.5 -25.5t24.5 -60.5v-110q0 -36 -24 -61t-60 -25q-34 0 -59 25.5t-25 60.5z" />
<glyph unicode="/" horiz-adv-x="714" d="M5.5 -17q-13.5 32 0.5 64l555 1399q12 32 43.5 46t61.5 3q32 -12 44.5 -44t0.5 -65l-555 -1400q-12 -31 -43.5 -44.5t-61.5 -2.5q-32 12 -45.5 44z" />
<glyph unicode="0" horiz-adv-x="1425" d="M176 530q-11 192 0 379q15 243 161.5 394t375.5 151q228 0 375 -151t161 -394q10 -190 0 -379q-14 -243 -161.5 -396.5t-374.5 -153.5q-228 0 -375.5 153t-161.5 397zM344 539q14 -182 112 -290t257 -108t256.5 108t111.5 290q8 146 0 364q-11 180 -109 284.5t-259 104.5 t-259.5 -104.5t-109.5 -284.5q-8 -218 0 -364z" />
<glyph unicode="1" horiz-adv-x="942" d="M106 1170.5q10 35.5 39 50.5l377 211q21 12 45 12q36 0 60 -25.5t24 -60.5v-1280q0 -37 -24.5 -61.5t-59.5 -24.5q-34 0 -59 25.5t-25 60.5v1141l-256 -142q-31 -19 -64 -10.5t-50 39.5q-17 29 -7 64.5z" />
<glyph unicode="2" horiz-adv-x="1204" d="M121 119q0 134 75.5 245.5t241.5 229.5q234 165 295 217q98 84 121 160q12 38 12 86q0 43 -16 83t-48.5 75t-90 56t-133.5 21q-189 0 -302 -145q-20 -28 -47 -35q-34 -11 -65.5 3.5t-40.5 45.5q-12 42 10 74q67 92 178 155.5t260 63.5q111 0 200 -31.5t146 -86t87 -126 t30 -153.5q0 -55 -9 -99.5t-34.5 -88.5t-55 -80t-86.5 -84.5t-112 -89.5t-147 -107q-156 -112 -226 -189.5t-73 -156.5h688q36 0 61 -22.5t25 -55.5q0 -36 -25 -60t-61 -24h-737q-53 0 -87 32t-34 87z" />
<glyph unicode="3" horiz-adv-x="1210" d="M88 1354q0 36 24.5 59t61.5 23h660q53 0 88.5 -33t35.5 -84q0 -43 -28 -78l-316 -338q185 5 305.5 -102.5t120.5 -280.5q0 -246 -205.5 -386t-560.5 -140q-65 0 -98 2q-37 2 -61.5 24.5t-24.5 57.5q0 37 27 60t69 20q64 -6 123 -6q259 0 411 97t152 267 q0 115 -75.5 181.5t-200.5 66.5q-46 0 -92 -8t-58 -8q-33 0 -56 22t-23 55q0 36 24 60l361 389h-578q-37 0 -61.5 23t-24.5 57z" />
<glyph unicode="4" horiz-adv-x="1361" d="M121 487q0 49 37 97l544 725q53 72 92.5 105.5t92.5 33.5q137 0 137 -172v-762h152q34 0 57.5 -24t23.5 -60q0 -32 -24.5 -56t-56.5 -24h-152v-266q0 -34 -25 -59t-59 -25q-35 0 -58.5 24.5t-23.5 59.5v266h-596q-64 0 -104.5 38.5t-36.5 98.5zM301 514h557v739z" />
<glyph unicode="5" horiz-adv-x="1241" d="M152 72q0 40 23.5 61t60.5 21q221 0 377 41.5t243.5 131t87.5 222.5q0 107 -78 174.5t-202 67.5q-73 0 -146.5 -18.5t-106.5 -33.5t-79 -39q-62 -27 -100.5 1.5t-38.5 80.5v516q0 71 40 104.5t101 33.5h608q37 0 61.5 -23.5t24.5 -58.5q0 -34 -25.5 -57t-60.5 -23h-594 v-404q76 38 150 59t176 21q197 0 317.5 -112t120.5 -285q0 -270 -235 -416.5t-637 -146.5q-38 0 -63 22t-25 60z" />
<glyph unicode="6" horiz-adv-x="1368" d="M174 745q20 341 195.5 525t474.5 184q122 0 209 -20q28 -6 47.5 -27.5t19.5 -52.5q0 -32 -21.5 -55t-58.5 -23q-10 0 -70 8t-126 8q-207 0 -339 -122t-153 -343q194 88 373 88q227 0 360.5 -120t133.5 -330q0 -100 -32.5 -186.5t-95 -154t-162 -106t-224.5 -38.5 q-121 0 -215.5 37.5t-157 104.5t-101 163t-52 210.5t-5.5 249.5zM340 653q-13 -252 82 -382t283 -130q168 0 257 91t89 233q0 141 -87 217t-253 76q-178 0 -371 -105z" />
<glyph unicode="7" horiz-adv-x="1079" d="M70 1354q0 36 25 59t61 23h751q54 0 88.5 -31t34.5 -82q0 -36 -26 -80q-291 -484 -404.5 -711.5t-173.5 -474.5q-17 -65 -80 -65q-23 0 -39 8q-60 28 -35 113q65 238 186.5 483.5t379.5 677.5h-682q-35 0 -60.5 23t-25.5 57z" />
<glyph unicode="8" horiz-adv-x="1394" d="M160 393q0 137 70 229.5t184 129.5q-96 36 -157.5 117.5t-61.5 195.5q0 184 130.5 286.5t368.5 102.5q240 0 372 -103t132 -278q0 -231 -215 -319q114 -37 183 -129.5t69 -229.5q0 -190 -139 -302.5t-398 -112.5q-260 0 -399 112.5t-139 300.5zM330 399 q0 -117 89.5 -187.5t274.5 -70.5q187 0 280 72.5t93 183.5q0 122 -100.5 194.5t-278.5 72.5q-175 0 -266.5 -71.5t-91.5 -193.5zM360 1067q0 -113 90 -176.5t246 -63.5q157 0 245.5 65.5t88.5 178.5q0 104 -80.5 162.5t-251.5 58.5q-173 0 -255.5 -60t-82.5 -165z" />
<glyph unicode="9" horiz-adv-x="1357" d="M150 969q0 213 134 349t375 136q140 0 242.5 -45t164.5 -131t91 -204t29 -273v-60q-7 -168 -45.5 -292.5t-106 -210t-172.5 -139.5t-234.5 -79.5t-301.5 -29.5q-38 -1 -63 22.5t-25 59.5q0 33 22 58t59 26q222 11 315 31q192 41 281 173q61 91 86 232q-179 -84 -364 -84 q-223 0 -355 124t-132 337zM317 971q0 -146 85.5 -225.5t259.5 -79.5q69 0 135.5 15.5t106.5 32t114 52.5v53q0 244 -82 358.5t-277 114.5q-171 0 -256.5 -87t-85.5 -234z" />
<glyph unicode=":" horiz-adv-x="567" d="M199 68v110q0 35 24.5 60.5t59.5 25.5t59.5 -25.5t24.5 -60.5v-110q0 -36 -24 -61t-60 -25q-34 0 -59 25.5t-25 60.5zM199 825v111q0 35 24.5 60.5t59.5 25.5t59.5 -25.5t24.5 -60.5v-111q0 -36 -24 -61t-60 -25q-34 0 -59 25.5t-25 60.5z" />
<glyph unicode=";" horiz-adv-x="567" d="M186 -123q0 13 4 33q3 9 14.5 31t19 52t7.5 75v106q0 34 24 58t60 24q34 0 59 -24t25 -58v-45v-47q-1 -43 -8 -87t-22 -88t-43.5 -72t-65.5 -28q-31 0 -51.5 21.5t-22.5 48.5zM231 825v111q0 35 24.5 60.5t59.5 25.5t59.5 -25.5t24.5 -60.5v-111q0 -36 -24 -61t-60 -25 q-34 0 -59 25.5t-25 60.5z" />
<glyph unicode="&#x3c;" horiz-adv-x="1286" d="M221 717q0 76 92 153l557 453q29 23 62 20.5t55 -28.5t19 -61.5t-29 -55.5l-563 -453q-19 -14 -19 -28q0 -15 19 -29l563 -452q26 -20 29.5 -55.5t-19.5 -61.5q-20 -26 -54 -28.5t-63 20.5l-557 452q-92 77 -92 154z" />
<glyph unicode="=" horiz-adv-x="1286" d="M137 532q0 35 24.5 58.5t59.5 23.5h844q35 0 59.5 -23.5t24.5 -58.5q0 -33 -25 -56t-59 -23h-844q-35 0 -59.5 22.5t-24.5 56.5zM137 903q0 35 24.5 58.5t59.5 23.5h844q35 0 59.5 -23.5t24.5 -58.5q0 -33 -25 -56.5t-59 -23.5h-844q-35 0 -59.5 23t-24.5 57z" />
<glyph unicode="&#x3e;" horiz-adv-x="1286" d="M279 180.5q4 35.5 30 55.5l563 452q19 14 19 29q0 14 -19 28l-563 453q-26 20 -30 55.5t18 61.5t55.5 28.5t61.5 -20.5l559 -453q92 -77 92 -153q0 -77 -92 -154l-559 -452q-28 -23 -61.5 -20.5t-55.5 28.5t-18 61.5z" />
<glyph unicode="?" horiz-adv-x="1142" d="M117 1198q0 27 22 59q160 195 439 195q191 0 309.5 -109t118.5 -282q0 -98 -25.5 -172.5t-84.5 -135t-133 -106.5t-192 -102q-30 -15 -61 -15q-30 0 -54 22.5t-24 55.5q0 56 57 82q200 87 274.5 163t74.5 204q0 105 -69 169t-191 64q-105 0 -177 -32.5t-133 -108.5 q-30 -37 -69 -37q-33 0 -57.5 26t-24.5 60zM432 63v109q0 34 25 58t59 24q35 0 59.5 -24t24.5 -58v-109q0 -34 -24.5 -57.5t-59.5 -23.5q-34 0 -59 24.5t-25 56.5z" />
<glyph unicode="@" horiz-adv-x="1767" d="M138.5 545q-0.5 130 4.5 207q13 197 113 357t265.5 251.5t365.5 91.5q151 0 287 -53.5t237 -148t160 -232.5t59 -299v-332q0 -108 -75.5 -184t-180.5 -76q-111 0 -186.5 77t-75.5 183v231q0 94 -64.5 159t-158.5 65q-92 0 -154 -64.5t-67 -159.5q-3 -66 0 -133 q3 -64 31.5 -112t71 -70t94.5 -28t102 14q38 11 66 -4.5t34 -46.5q6 -32 -10 -58t-47 -35q-56 -20 -127 -20q-159 0 -261 93.5t-108 256.5q-3 75 0 150q6 155 113 261.5t262 106.5q154 0 263.5 -107.5t109.5 -260.5v-242q0 -44 31.5 -77.5t74.5 -33.5q44 0 76.5 33.5 t32.5 77.5v330q0 173 -81.5 308t-215.5 206t-293 71q-235 0 -398 -156.5t-186 -396.5q-15 -174 2 -403q11 -126 62.5 -226.5t129.5 -162t172.5 -93.5t198.5 -32q132 0 242 45q22 11 51 5.5t45 -28.5q19 -25 11.5 -57t-37.5 -51q-129 -68 -310 -68q-104 0 -203.5 25 t-190 78.5t-160.5 130.5t-115.5 187.5t-55.5 242.5q-6 77 -6.5 207z" />
<glyph unicode="A" horiz-adv-x="1382" d="M51 84q0 19 4 29l426 1187q28 77 84 116.5t127 39.5t126.5 -39.5t82.5 -116.5l426 -1187q4 -8 4 -29q0 -35 -22 -60.5t-60 -25.5q-27 0 -49 14.5t-31 38.5l-151 428h-653l-152 -428q-9 -24 -31 -38.5t-49 -14.5q-38 0 -60 25.5t-22 60.5zM422 639h539l-216 612 q-13 41 -53 41t-53 -41z" />
<glyph unicode="B" horiz-adv-x="1370" d="M205 139v1157q0 61 38 100.5t105 39.5h455q98 0 176.5 -30t129 -81t77 -117t26.5 -141q0 -252 -192 -319v-5q109 -26 171 -114.5t62 -218.5q0 -108 -33.5 -189t-93.5 -128t-135.5 -70t-165.5 -23h-477q-67 0 -105 40t-38 99zM373 162h430q278 0 278 252 q0 117 -70.5 182.5t-187.5 65.5h-450v-500zM373 821h420q127 0 189 58.5t62 167.5q0 227 -251 227h-420v-453z" />
<glyph unicode="C" horiz-adv-x="1361" d="M143 551q-6 84 -6 167t6 165q13 161 88 290.5t205 205t291 75.5q174 0 317.5 -93.5t204.5 -246.5q6 -21 6 -39q0 -32 -25 -55t-54 -23q-56 0 -78 54q-48 110 -148 175.5t-223 65.5q-175 0 -288 -117t-128 -301q-4 -79 -4.5 -157.5t4.5 -157.5q15 -185 128 -301.5 t288 -116.5q124 0 223.5 66.5t147.5 177.5q22 53 78 53q29 0 54 -23t25 -57q0 -15 -6 -36q-62 -154 -205.5 -248t-316.5 -94q-121 0 -226.5 44t-181 120t-121.5 181t-55 226z" />
<glyph unicode="D" horiz-adv-x="1472" d="M205 139v1157q0 62 37.5 101t103.5 39h342q152 0 272.5 -45.5t198.5 -127.5t121 -191.5t50 -242.5q3 -58 3.5 -113.5t-3.5 -109.5q-8 -133 -50.5 -242t-120.5 -191t-198.5 -127.5t-272.5 -45.5h-342q-65 0 -103 40t-38 99zM373 162h315q228 0 345 119t130 329 q4 57 3.5 110.5t-3.5 102.5q-11 211 -128.5 331t-346.5 120h-315v-1112z" />
<glyph unicode="E" horiz-adv-x="1280" d="M205 139v1157q0 61 38 100.5t105 39.5h707q34 0 59 -23.5t25 -58.5q0 -33 -25.5 -56.5t-58.5 -23.5h-682v-471h663q34 0 58 -22.5t24 -57.5q0 -32 -25 -56t-57 -24h-663v-481h686q33 0 58.5 -23.5t25.5 -56.5q0 -35 -25 -58.5t-59 -23.5h-711q-67 0 -105 40t-38 99z" />
<glyph unicode="F" horiz-adv-x="1216" d="M205 78v1218q0 61 38 100.5t105 39.5h703q36 0 61 -22.5t25 -57.5q0 -33 -26 -57.5t-60 -24.5h-678v-502h643q34 0 59 -23.5t25 -58.5q0 -33 -25.5 -56.5t-58.5 -23.5h-643v-532q0 -35 -24.5 -60.5t-59.5 -25.5q-34 0 -59 26t-25 60z" />
<glyph unicode="G" horiz-adv-x="1435" d="M143 551q-6 84 -6 167t6 165q19 245 186.5 408t411.5 163q174 0 311 -84t208 -231q8 -16 8 -41q0 -34 -25 -58t-59 -24q-49 0 -74 45q-54 108 -149 169.5t-218 61.5q-178 0 -296.5 -117t-135.5 -301q-6 -80 -6 -159t6 -156q17 -184 136 -301t296 -117q172 0 279.5 93 t107.5 239v127h-292q-35 0 -60.5 24t-25.5 58q0 35 25 58.5t61 23.5h317q67 0 104 -39t37 -98v-135q0 -102 -40.5 -195.5t-111.5 -163.5t-176 -111.5t-227 -41.5q-245 0 -413 163t-185 408z" />
<glyph unicode="H" horiz-adv-x="1546" d="M205 78v1280q0 35 25 60.5t59 25.5q36 0 60 -25t24 -61v-559h798v559q0 35 25 60.5t59 25.5q36 0 60 -25t24 -61v-1280q0 -36 -24 -61t-60 -25q-34 0 -59 26t-25 60v559h-798v-559q0 -37 -23.5 -61.5t-60.5 -24.5q-35 0 -59.5 25.5t-24.5 60.5z" />
<glyph unicode="I" horiz-adv-x="579" d="M205 78v1280q0 35 25 60.5t59 25.5q36 0 60 -25t24 -61v-1280q0 -36 -24 -61t-60 -25q-35 0 -59.5 25.5t-24.5 60.5z" />
<glyph unicode="J" horiz-adv-x="1056" d="M74 244q0 33 23.5 57.5t56.5 24.5q49 0 77 -50q34 -61 91 -98t129 -37q103 0 172 72.5t69 206.5v938q0 35 25 60.5t59 25.5q36 0 60 -25t24 -61v-950q0 -187 -118.5 -307.5t-290.5 -120.5q-121 0 -221 62t-148 163q-8 24 -8 39z" />
<glyph unicode="K" horiz-adv-x="1296" d="M205 78v1280q0 35 25 60.5t59 25.5q36 0 60 -25t24 -61v-551q45 0 71 9t58 40l583 559q24 27 62 27q32 0 56 -25t24 -57t-25 -57l-602 -572l614 -594q25 -28 25 -59q0 -32 -25 -58t-57 -26q-33 0 -57 24l-598 578q-30 31 -56 39t-73 8v-565q0 -36 -24 -61t-60 -25 q-34 0 -59 26t-25 60z" />
<glyph unicode="L" horiz-adv-x="1138" d="M205 133v1225q0 35 25 60.5t59 25.5q36 0 60 -25t24 -61v-1196h669q34 0 60 -23.5t26 -56.5q0 -36 -24.5 -59t-61.5 -23h-700q-64 0 -100.5 37.5t-36.5 95.5z" />
<glyph unicode="M" horiz-adv-x="1896" d="M133 94l176 1196q11 81 59.5 121.5t118.5 40.5q67 0 113.5 -37.5t63.5 -107.5l264 -1129q5 -20 22 -20q8 0 14.5 6.5t8.5 13.5l258 1129q15 69 63 107t115 38q68 0 116.5 -40.5t59.5 -121.5l178 -1194q1 -10 1 -19q0 -33 -17 -57q-22 -30 -68 -30q-32 0 -55 18t-27 49 l-167 1207q-4 20 -21 20q-18 0 -25 -18l-266 -1112q-38 -156 -170 -156q-134 0 -172 156l-266 1112q-7 18 -23 18q-17 0 -22 -20l-168 -1207q-5 -31 -26.5 -49t-53.5 -18q-45 0 -67 30q-18 24 -18 56q0 9 1 18z" />
<glyph unicode="N" horiz-adv-x="1574" d="M205 78v1214q0 64 40 107t103 43q92 0 139 -80l717 -1163h4q-1 27 -3 80.5t-3.5 109t-1.5 115.5v854q0 35 25 60.5t59 25.5q36 0 60 -25t24 -61v-1219q0 -61 -38 -102t-97 -41q-88 0 -135 76l-727 1177h-4q6 -252 6 -317v-854q0 -37 -23.5 -61.5t-60.5 -24.5 q-34 0 -59 26t-25 60z" />
<glyph unicode="O" horiz-adv-x="1492" d="M143 551q-6 84 -6 167t6 165q19 244 188 407.5t412 163.5q162 0 297.5 -76t217 -206.5t92.5 -288.5q6 -82 6 -165t-6 -167q-11 -160 -92.5 -290.5t-217 -205.5t-297.5 -75q-161 0 -294.5 75t-214 205t-91.5 291zM311 559q17 -183 137 -300.5t295 -117.5 q179 0 300.5 117.5t136.5 300.5q8 80 8 159.5t-8 158.5q-15 181 -137 298t-300 117q-175 0 -295 -116.5t-137 -298.5q-6 -80 -6 -159t6 -159z" />
<glyph unicode="P" horiz-adv-x="1318" d="M205 78v1220q0 59 37 98.5t102 39.5h414q128 0 232.5 -52t168.5 -155.5t64 -241.5q0 -211 -134 -330.5t-348 -119.5h-368v-459q0 -34 -25 -60t-59 -26t-59 26t-25 60zM373 698h366q160 0 236 76.5t76 210.5q0 135 -75 212t-226 77h-377v-576z" />
<glyph unicode="Q" horiz-adv-x="1495" d="M143 551q-6 84 -6 167t6 165q19 244 188 407.5t412 163.5q162 0 297.5 -76t217 -206.5t92.5 -288.5q6 -82 6 -165t-6 -167q-9 -126 -62 -234t-141 -186l190 -233q20 -23 20 -53q0 -3 -1 -7q-2 -33 -27 -53q-22 -18 -50 -18q-4 0 -7 1q-33 2 -53 27l-203 246 q-125 -61 -273 -61q-161 0 -294.5 75t-214 205t-91.5 291zM311 559q17 -183 137 -300.5t295 -117.5q87 0 166 31l-198 244q-19 23 -17.5 56t25.5 54q22 19 52 19h8q35 -3 55 -29l208 -258q124 124 138 301q8 79 8 159t-8 159q-15 181 -137 298t-300 117q-175 0 -295 -116.5 t-137 -298.5q-6 -79 -6 -159t6 -159z" />
<glyph unicode="R" horiz-adv-x="1388" d="M205 78v1220q0 59 37 98.5t102 39.5h418q95 0 178 -29t147 -83.5t101 -139t37 -189.5q0 -177 -93 -276t-255 -127l372 -461q19 -22 19 -51q0 -35 -25.5 -61.5t-60.5 -26.5q-37 0 -62 28l-385 476q-28 35 -51.5 50t-62.5 15h-248v-483q0 -34 -25 -60t-59 -26t-59 26 t-25 60zM373 721h368q314 0 314 274q0 131 -76 205t-227 74h-379v-553z" />
<glyph unicode="S" horiz-adv-x="1267" d="M121 203q0 37 24.5 61.5t61.5 24.5q23 0 61 -25q85 -60 174.5 -90.5t219.5 -30.5q163 0 254.5 68.5t91.5 191.5q0 98 -79.5 150t-291.5 92q-252 48 -368.5 141.5t-116.5 257.5q0 188 136 299t357 111q125 0 235 -32t169 -83q32 -25 32 -69q0 -32 -23 -56t-54 -24 q-30 0 -66 20q-153 82 -293 82q-169 0 -246 -67.5t-77 -175.5q0 -99 76 -150.5t280 -91.5q271 -52 385.5 -142t114.5 -262q0 -188 -139.5 -305.5t-379.5 -117.5q-277 0 -495 149q-43 27 -43 74z" />
<glyph unicode="T" horiz-adv-x="1228" d="M37 1354q0 36 25 59t61 23h983q36 0 60 -23t24 -59q0 -33 -25 -56.5t-59 -23.5h-406v-1196q0 -35 -24.5 -60.5t-59.5 -25.5t-59.5 25.5t-24.5 60.5v1196h-409q-35 0 -60.5 23t-25.5 57z" />
<glyph unicode="U" horiz-adv-x="1531" d="M186 582v776q0 35 25 60.5t59 25.5q35 0 59.5 -25.5t24.5 -60.5v-774q0 -201 115.5 -322t296.5 -121t296.5 121t115.5 322v774q0 35 25 60.5t59 25.5q35 0 59.5 -25.5t24.5 -60.5v-776q0 -266 -164.5 -434t-415.5 -168t-415.5 168t-164.5 434z" />
<glyph unicode="V" horiz-adv-x="1359" d="M47 1354q0 34 24.5 61t61.5 27q25 0 47 -15t31 -41l444 -1222q9 -19 25 -19q20 0 25 19l444 1220q9 27 31 42.5t49 15.5q36 0 59 -27t23 -61q0 -13 -4 -29l-447 -1198q-56 -147 -180 -147q-126 0 -182 147l-445 1198q-6 15 -6 29z" />
<glyph unicode="W" horiz-adv-x="1896" d="M80 1360q0 33 22 57.5t60 24.5q30 0 54 -17.5t28 -44.5l258 -1241q2 -5 6 -5t6 5l305 1176q14 60 56 92.5t94 32.5q48 0 89.5 -32.5t55.5 -92.5l303 -1176q1 -6 6 -6t7 6l264 1241q8 28 30.5 45t51.5 17q39 0 60.5 -25t21.5 -59q0 -12 -3 -21l-286 -1231 q-13 -59 -54.5 -91.5t-91.5 -32.5t-92.5 32.5t-56.5 89.5l-303 1168q-1 4 -5 4t-5 -4l-308 -1168q-17 -58 -56.5 -91t-88.5 -33q-52 0 -94.5 34t-55.5 95l-276 1228q-2 8 -2 23z" />
<glyph unicode="X" horiz-adv-x="1320" d="M72 76q0 28 20 55l459 584l-459 588q-20 27 -20 55q0 32 27 57t61 25q39 0 65 -33l434 -557l437 557q27 35 69 35q35 0 59.5 -25.5t24.5 -58.5q0 -32 -20 -58l-463 -587l457 -582q20 -26 20 -59q0 -31 -24.5 -54.5t-59.5 -23.5q-44 0 -67 33l-430 551l-437 -553 q-25 -31 -69 -31q-35 0 -59.5 24.5t-24.5 57.5z" />
<glyph unicode="Y" horiz-adv-x="1325" d="M33 1360q0 33 25.5 57.5t60.5 24.5q40 0 65 -31l478 -598l479 598q26 33 65 33q35 0 60.5 -25t25.5 -59q0 -32 -20 -55l-471 -578q-3 -4 -15 -18t-15 -18t-10 -15.5t-9 -19.5t-4.5 -20t-2.5 -26v-532q0 -36 -23.5 -61t-59.5 -25q-34 0 -59 26t-25 60v532q0 12 -1 22 t-4.5 20t-5.5 15.5t-9.5 16t-9.5 13.5t-12.5 16t-13.5 16l-469 574q-20 23 -20 57z" />
<glyph unicode="Z" horiz-adv-x="1200" d="M104 135q0 50 41 103l748 1036h-694q-36 0 -60 22t-24 56q0 36 24 60t60 24h731q69 0 109 -37.5t40 -95.5q0 -47 -47 -115l-741 -1026h745q35 0 60.5 -23t25.5 -57q0 -36 -25 -59t-61 -23h-780q-69 0 -110.5 38t-41.5 97z" />
<glyph unicode="[" horiz-adv-x="739" d="M180 -227v1720q0 56 35.5 93.5t97.5 37.5h322q36 0 61 -23.5t25 -58.5t-26 -59.5t-60 -24.5h-287v-1651h287q34 0 60 -24t26 -59t-25 -58.5t-61 -23.5h-322q-63 0 -98 37t-35 94z" />
<glyph unicode="\" horiz-adv-x="718" d="M-20 1448q-12 31 1.5 63.5t45.5 44.5q32 13 64 -1t44 -46l604 -1519q13 -34 -1 -67.5t-46 -45.5t-64 2.5t-44 48.5z" />
<glyph unicode="]" horiz-adv-x="739" d="M18 -279q0 35 25.5 59.5t60.5 24.5h287v1651h-287q-35 0 -60.5 24.5t-25.5 59.5t25 58.5t61 23.5h320q64 0 98.5 -36.5t34.5 -94.5v-1720q0 -57 -35 -94t-98 -37h-320q-36 0 -61 23t-25 58z" />
<glyph unicode="^" horiz-adv-x="1251" d="M258 811l188 487q57 146 179 146q119 0 180 -146l188 -487q12 -29 -2 -61.5t-45 -44.5q-33 -12 -64.5 1.5t-43.5 45.5l-187 501q-8 21 -26 21q-17 0 -25 -21l-188 -501q-10 -32 -43 -45.5t-64 -1.5q-32 12 -45.5 44t-1.5 62z" />
<glyph unicode="_" horiz-adv-x="966" d="M0 -250h967v-153h-967v153z" />
<glyph unicode="`" horiz-adv-x="737" d="M160 1757q0 30 19 50t48 20q17 0 37 -8l277 -144q39 -20 39 -63q0 -29 -20.5 -49.5t-49.5 -20.5q-17 0 -41 12l-272 142q-37 19 -37 61z" />
<glyph unicode="a" d="M123 330q0 143 107 237.5t305 94.5q125 0 286 -44v84q0 123 -62 179.5t-194 56.5q-107 0 -243 -53q-24 -9 -45 -9t-39 10q-34 20 -35 62q0 54 53 78q54 27 142 46.5t184 19.5q190 0 296.5 -94t106.5 -289v-545q0 -47 -35 -68q-53 -40 -169 -77t-249 -37q-196 0 -302.5 95 t-106.5 253zM289 334q0 -98 66 -150.5t196 -52.5q75 0 139 16.5t91 31.5t40 28v268q-173 45 -284 45q-108 0 -178 -49.5t-70 -136.5z" />
<glyph unicode="b" horiz-adv-x="1230" d="M188 172v1198q0 36 23.5 61t58.5 25q34 0 59 -25.5t25 -60.5v-344q148 66 295 66q193 0 304 -106.5t126 -299.5q5 -57 5 -146t-5 -145q-15 -192 -133 -302.5t-319 -110.5q-121 0 -234.5 41t-171.5 81q-20 14 -26.5 29t-6.5 39zM354 221q38 -29 119.5 -56.5t151.5 -27.5 q262 0 286 271q5 58 5 125t-5 141q-15 262 -268 262q-82 0 -163.5 -23t-125.5 -49v-643z" />
<glyph unicode="c" horiz-adv-x="1140" d="M150 395q-4 73 -4 146t4 145q10 180 138 293t320 113q81 0 152.5 -22.5t118.5 -57t81.5 -76t50 -79t15.5 -66.5q0 -36 -22.5 -60t-55.5 -24q-56 0 -80 55q-34 86 -104 130t-154 44q-128 0 -207 -70.5t-88 -189.5q-3 -41 -3 -128.5t3 -141.5q11 -119 88 -194t207 -75 q84 0 155.5 44.5t106.5 129.5q25 56 80 56q33 0 55.5 -24t22.5 -60q0 -30 -16 -67.5t-51 -79t-83 -75.5t-119.5 -56.5t-152.5 -22.5q-194 0 -320.5 118t-137.5 295z" />
<glyph unicode="d" horiz-adv-x="1230" d="M148 538.5q0 89.5 4 145.5q15 194 126 301t304 107q147 0 295 -66v344q0 35 23.5 60.5t57.5 25.5q36 0 60 -25t24 -61v-1198q0 -45 -34 -68q-55 -39 -168.5 -80.5t-235.5 -41.5q-201 0 -319 110.5t-133 302.5q-4 54 -4 143.5zM317 408q24 -271 289 -271q69 0 151.5 27.5 t119.5 56.5v643q-44 26 -125.5 49t-163.5 23q-252 0 -271 -260q-4 -62 -4 -129t4 -139z" />
<glyph unicode="e" horiz-adv-x="1171" d="M150 422q-4 65 -4 121q0 70 6 125q17 196 140 310t312 114q200 0 320 -124t120 -321v-61q0 -119 -120 -119h-613v-33q0 -142 83.5 -221.5t221.5 -79.5q102 0 250 53q24 9 44 9q24 0 42 -12q34 -23 33 -62q0 -44 -45 -74q-48 -29 -142 -47t-184 -18q-209 0 -331 120 t-133 320zM311 606h545q24 0 27 25q1 15 1 29q0 119 -69 196q-77 86 -209 86q-148 0 -224 -90q-71 -84 -71 -227v-19z" />
<glyph unicode="f" horiz-adv-x="804" d="M76 967q0 32 23.5 53.5t56.5 21.5h71v95q0 154 83 243.5t239 89.5q109 0 180 -22q66 -18 66 -78q0 -29 -21 -51.5t-59 -22.5q-20 0 -72.5 9.5t-89.5 9.5q-160 0 -160 -191v-82h287q33 0 56.5 -21.5t23.5 -53.5t-23.5 -54t-56.5 -22h-287v-813q0 -37 -23.5 -61.5 t-58.5 -24.5t-59.5 24.5t-24.5 61.5v813h-71q-33 0 -56.5 22t-23.5 54z" />
<glyph unicode="g" horiz-adv-x="1228" d="M150 418q-4 64 -4 129t4 129q12 188 128.5 302t317.5 114q124 0 241 -39.5t169 -77.5q19 -14 26.5 -31.5t7.5 -50.5v-799q0 -227 -127 -351t-333 -124q-184 0 -324 86q-72 45 -72 88q0 28 19 53t59 25q8 0 17 -1.5t15.5 -3.5t16 -6.5t13 -6.5l14 -8t12.5 -7 q113 -65 230 -65q123 0 208.5 75.5t85.5 210.5v21q-148 -70 -301 -70q-188 0 -299.5 110t-123.5 298zM315 428q9 -130 75 -197t200 -67q94 0 173 27.5t111 56.5v612q-7 7 -38 22.5t-98 33.5t-136 18q-264 0 -287 -268q-5 -52 -5 -112t5 -126z" />
<glyph unicode="h" horiz-adv-x="1249" d="M188 78v1292q0 36 23.5 61t58.5 25q34 0 59 -25.5t25 -60.5v-414q55 59 142 97.5t180 38.5q183 0 292 -108.5t109 -309.5v-596q0 -37 -24.5 -61.5t-59.5 -24.5q-34 0 -58 25t-24 61v581q0 129 -66 202t-188 73q-89 0 -171 -45t-132 -113v-698q0 -37 -23.5 -61.5 t-60.5 -24.5q-34 0 -58 25t-24 61z" />
<glyph unicode="i" horiz-adv-x="559" d="M178 1346q0 43 29 72.5t72 29.5t72.5 -29.5t29.5 -72.5q0 -42 -30 -73.5t-72 -31.5t-71.5 31.5t-29.5 73.5zM197 78v913q0 36 23.5 61t58.5 25t59 -25t24 -61v-913q0 -37 -23.5 -61.5t-59.5 -24.5q-33 0 -57.5 25t-24.5 61z" />
<glyph unicode="j" horiz-adv-x="544" d="M4 -309q0 29 25 57q88 97 120.5 184t32.5 218v841q0 36 23.5 61t58.5 25q34 0 59 -25.5t25 -60.5v-835q0 -171 -48 -289t-150 -229q-26 -29 -64 -29q-35 0 -58.5 24t-23.5 58zM164 1346q0 43 28.5 72.5t71.5 29.5t73 -29.5t30 -72.5q0 -42 -30.5 -73.5t-72.5 -31.5 t-71 31.5t-29 73.5z" />
<glyph unicode="k" horiz-adv-x="1095" d="M188 78v1292q0 35 24 59.5t58 24.5q35 0 59.5 -24.5t24.5 -59.5v-739h35q38 0 62 9t53 38l383 377q23 26 61 26q33 0 56.5 -24.5t23.5 -57.5q0 -35 -24 -59l-404 -387l410 -416q27 -29 27 -64q0 -31 -23 -57q-23 -25 -56 -25q-2 1 -4 1q-36 2 -59 26l-391 402 q-29 29 -53 39t-60 10h-37v-391q0 -37 -23.5 -61.5t-60.5 -24.5q-34 0 -58 25.5t-24 60.5z" />
<glyph unicode="l" horiz-adv-x="542" d="M188 78v1292q0 35 23.5 59.5t58.5 24.5q34 0 59 -24.5t25 -59.5v-1292q0 -37 -23.5 -61.5t-60.5 -24.5q-34 0 -58 25t-24 61z" />
<glyph unicode="m" horiz-adv-x="1789" d="M186 78v827q0 28 9 44t34 36q62 47 157 77t198 30q219 0 315 -125q30 25 55.5 42.5t66.5 39t92 32.5t110 11q206 0 300.5 -105.5t94.5 -312.5v-596q0 -37 -23.5 -61.5t-58.5 -24.5q-34 0 -59 25t-25 61v586q0 139 -58.5 204.5t-174.5 65.5q-81 0 -140.5 -31t-93.5 -78 v-747q0 -37 -23.5 -61.5t-58.5 -24.5q-34 0 -59 25t-25 61v604q0 128 -61 190t-172 62q-26 0 -50 -2t-43.5 -6t-37 -8.5t-31 -10.5t-25 -11t-20 -10.5t-14 -9t-9.5 -6.5l-4 -4v-788q0 -37 -23.5 -61.5t-58.5 -24.5q-34 0 -59 25t-25 61z" />
<glyph unicode="n" horiz-adv-x="1247" d="M186 78v829q0 47 37 74q55 41 164.5 76t251.5 35q214 0 325 -108t111 -310v-596q0 -37 -23 -61.5t-59 -24.5q-34 0 -59 25t-25 61v588q0 133 -77.5 200.5t-196.5 67.5q-81 0 -159.5 -20.5t-123.5 -47.5v-788q0 -37 -23.5 -61.5t-58.5 -24.5q-34 0 -59 25t-25 61z" />
<glyph unicode="o" horiz-adv-x="1212" d="M150 395q-4 72 -4 144.5t4 146.5q10 179 138 292.5t318 113.5q191 0 319 -113t138 -293q6 -74 6 -146.5t-6 -144.5q-11 -180 -139 -296.5t-318 -116.5q-189 0 -317 116.5t-139 296.5zM315 406q11 -121 89.5 -195t201.5 -74t201.5 74t89.5 195q4 66 4 133t-4 135 q-8 116 -86 189t-205 73t-205 -73t-86 -189q-4 -68 -4 -135t4 -133z" />
<glyph unicode="p" horiz-adv-x="1228" d="M186 -311v1214q0 42 33 64q56 41 172.5 83t243.5 42q196 0 311 -110.5t133 -303.5q5 -54 5 -144.5t-5 -144.5q-17 -194 -133 -300.5t-317 -106.5q-139 0 -277 65v-358q0 -35 -24 -60.5t-58 -25.5q-35 0 -59.5 25.5t-24.5 60.5zM352 213q42 -27 118.5 -51.5t154.5 -24.5 q138 0 207.5 65.5t78.5 194.5q5 76 5 143.5t-5 125.5q-24 270 -278 270q-73 0 -157.5 -27.5t-123.5 -56.5v-639z" />
<glyph unicode="q" horiz-adv-x="1230" d="M148 533q0 89 4 145q15 192 130.5 303t311.5 111q127 0 244.5 -42.5t173.5 -82.5q30 -20 30 -64v-1214q0 -36 -24 -61t-60 -25q-34 0 -57.5 25.5t-23.5 60.5v358q-142 -65 -285 -65q-198 0 -311.5 106.5t-128.5 298.5q-4 57 -4 146zM317 399q18 -262 279 -262 q81 0 159.5 23t121.5 49v643q-39 29 -123.5 56.5t-155.5 27.5q-257 0 -281 -270q-4 -72 -4 -139t4 -128z" />
<glyph unicode="r" horiz-adv-x="774" d="M174 76v690q0 152 87 239t247 87q103 0 178 -23q66 -17 66 -78q0 -29 -21.5 -52.5t-60.5 -23.5q-17 0 -69.5 8.5t-92.5 8.5q-86 -1 -126 -45.5t-40 -138.5v-672q0 -35 -24.5 -59.5t-59.5 -24.5q-34 0 -59 24.5t-25 59.5z" />
<glyph unicode="s" horiz-adv-x="997" d="M112 149q-1 7 -1 14q0 24 14 44q21 27 51 32q6 1 12 1q25 0 52 -17q43 -31 72.5 -47.5t84 -30.5t123.5 -14q102 0 160.5 48t58.5 122q0 55 -39 91t-125 57q-133 30 -147 34q-146 38 -217.5 108t-71.5 183q0 145 106 231.5t277 86.5q85 0 164.5 -25t128.5 -63 q29 -23 30 -59.5t-20 -55.5q-20 -23 -50.5 -25.5t-59.5 15.5q-103 61 -199 61q-106 0 -160.5 -42t-54.5 -118q0 -51 35.5 -84t124.5 -57q29 -8 63 -16t66 -15.5t41 -9.5q272 -69 272 -289q0 -150 -108.5 -238.5t-288.5 -88.5q-227 0 -365 114q-24 20 -29 53z" />
<glyph unicode="t" horiz-adv-x="835" d="M176 319v891q0 35 24 59.5t58 24.5q35 0 59.5 -24.5t24.5 -59.5v-168h309q31 0 54.5 -21.5t23.5 -53.5t-23.5 -54t-54.5 -22h-309v-578q0 -81 39 -129.5t119 -48.5q21 0 45 4t40 8.5t42.5 13t36.5 11.5q16 4 30 4q30 0 48 -16q28 -23 28 -64q0 -57 -68 -80 q-90 -34 -210 -34q-158 0 -237 92t-79 245z" />
<glyph unicode="u" horiz-adv-x="1247" d="M172 399v592q0 36 23.5 61t58.5 25t59.5 -25.5t24.5 -60.5v-594q0 -120 72.5 -189t201.5 -69q168 0 283 76v776q0 36 23.5 61t58.5 25q34 0 59 -25.5t25 -60.5v-819q0 -46 -35 -68q-173 -122 -414 -122q-200 0 -320 110t-120 307z" />
<glyph unicode="v" horiz-adv-x="1050" d="M53 961q-7 19 -7 36q0 23 14 45q26 36 73 37q25 0 46 -16.5t30 -42.5l307 -850q3 -8 10.5 -8t10.5 8l301 842q23 65 82 65q46 1 70 -37q14 -22 14 -47q0 -17 -7 -35l-313 -841q-50 -129 -160 -129q-106 0 -153 127z" />
<glyph unicode="w" horiz-adv-x="1662" d="M76 963q-4 16 -4 30q0 28 15 52q23 36 65 36q27 0 47.5 -15.5t27.5 -43.5l232 -864q2 -7 6 -9.5t8 0t6 9.5l207 803q13 56 54.5 88t93.5 32q53 0 92.5 -32.5t54.5 -90.5l207 -800q2 -7 6 -9.5t8 0t6 9.5l224 858q6 30 28 47.5t53 17.5q43 -1 65 -37q15 -24 15 -51 q0 -15 -4 -30l-239 -861q-18 -63 -58 -95t-94 -32q-55 0 -96 32.5t-55 94.5l-203 785q-3 8 -10 8q-11 0 -11 -8l-209 -783q-34 -129 -147 -129q-55 0 -96 32.5t-58 94.5z" />
<glyph unicode="x" horiz-adv-x="1114" d="M102 74q0 29 21 53l330 418l-314 395q-20 23 -20 55q0 30 24.5 55t57.5 25q40 0 65 -31l289 -370l289 368q23 33 71 33q35 0 57.5 -23.5t22.5 -56.5q0 -31 -20 -57l-311 -395l327 -416q21 -24 21 -55q0 -32 -24 -56t-58 -24q-42 0 -66 31l-307 393l-305 -393 q-25 -31 -68 -31q-35 0 -58.5 24.5t-23.5 57.5z" />
<glyph unicode="y" horiz-adv-x="1048" d="M55 956q-8 19 -8 36q0 24 15 46q25 37 71 37q51 0 78 -59l317 -731q3 -6 8.5 -6t8.5 6l289 725q23 65 81 65q47 0 72 -38q14 -22 14 -45q0 -17 -8 -36l-385 -933q-57 -137 -135.5 -243t-148.5 -147q-40 -24 -74 -24q-33 0 -57.5 22t-24.5 56q0 49 39 71q72 41 135.5 119 t101.5 191z" />
<glyph unicode="z" horiz-adv-x="1042" d="M115 127q0 55 41 106l608 668h-539q-33 0 -57.5 21.5t-24.5 54.5t24.5 55.5t57.5 22.5h570q64 0 102 -33t41 -86q1 -6 1 -13q0 -58 -50 -114l-596 -655h561q34 0 58 -22t24 -54q0 -33 -24 -55.5t-58 -22.5h-594q-66 0 -105.5 36t-39.5 91z" />
<glyph unicode="{" horiz-adv-x="778" d="M70 645q0 39 41 72q62 49 85 101.5t23 131.5v467q0 85 61 145t146 60h248q36 0 61 -23.5t25 -58.5t-26 -59.5t-60 -24.5h-225q-26 0 -44 -17.5t-18 -43.5v-445q0 -118 -41 -192.5t-96 -112.5q137 -99 137 -305v-473q0 -27 16.5 -44.5t42.5 -17.5h228q34 0 60 -24.5 t26 -59.5t-25 -58t-61 -23h-240q-88 0 -151.5 62.5t-63.5 150.5v485q0 79 -23 131.5t-85 101.5q-41 33 -41 74z" />
<glyph unicode="|" horiz-adv-x="626" d="M223 -201v1825q0 35 25 60.5t59 25.5q35 0 59.5 -25.5t24.5 -60.5v-1825q0 -37 -24.5 -61.5t-59.5 -24.5q-34 0 -59 25.5t-25 60.5z" />
<glyph unicode="}" horiz-adv-x="778" d="M18 -279q0 35 25.5 59.5t60.5 24.5h226q26 0 43.5 18t17.5 44v473q0 206 137 305q-55 38 -96 112.5t-41 192.5v445q0 26 -17.5 43.5t-43.5 17.5h-226q-35 0 -60.5 24.5t-25.5 59.5t25 58.5t61 23.5h248q85 0 145 -60t60 -145v-467q0 -78 23.5 -131t85.5 -102 q41 -33 41 -72q0 -41 -41 -74q-62 -49 -85.5 -102t-23.5 -131v-485q0 -88 -62.5 -150.5t-150.5 -62.5h-240q-36 0 -61 23t-25 58z" />
<glyph unicode="~" horiz-adv-x="1296" d="M141 715q0 61 66 86q149 63 239 63q65 0 134.5 -26.5t138 -53t131.5 -26.5q70 0 172 51q56 29 93.5 1t37.5 -69q0 -61 -66 -86q-146 -63 -241 -63q-65 0 -134.5 26.5t-138 53t-131.5 26.5q-66 0 -168 -51q-56 -29 -94.5 -1.5t-38.5 69.5z" />
<glyph unicode="&#xa1;" horiz-adv-x="440" d="M135 1262v108q0 32 26 57t60 25t59 -24t25 -58v-108q0 -34 -25 -58t-59 -24t-60 24.5t-26 57.5zM137 84l10 811q0 29 21.5 51.5t50.5 22.5q31 0 52.5 -21.5t21.5 -52.5l10 -811q0 -35 -24 -60.5t-58 -25.5q-35 0 -59.5 25.5t-24.5 60.5z" />
<glyph unicode="&#xa2;" horiz-adv-x="1032" d="M190 614q-6 101 0 205q9 138 97.5 240t220.5 127v186q0 33 22.5 56.5t53.5 23.5t52 -23t21 -57v-186q94 -17 167 -74t104 -135q10 -25 10 -41q0 -31 -24.5 -53.5t-53.5 -22.5q-26 0 -44.5 14.5t-27.5 34.5q-27 63 -80.5 100.5t-119.5 37.5q-105 0 -167 -65t-71 -171 q-10 -97 0 -190q11 -105 72 -168.5t166 -63.5q67 0 120.5 36t79.5 99q8 19 27 33t45 14q29 0 52.5 -21t23.5 -52q0 -9 -8 -33q-82 -183 -271 -221v-183q0 -34 -21 -56.5t-52 -22.5t-53.5 23.5t-22.5 55.5v187q-133 25 -221 125.5t-97 240.5z" />
<glyph unicode="&#xa3;" horiz-adv-x="1157" d="M25 674q0 34 24 56t60 22h106q-4 22 -15 71.5t-16.5 76t-10.5 64.5t-5 68q0 181 115.5 301.5t324.5 120.5q234 0 396 -162q34 -34 34 -71q0 -35 -23 -58.5t-57 -23.5q-33 0 -73 32q-67 62 -129 91.5t-152 29.5q-72 0 -126.5 -23.5t-84.5 -62t-44.5 -81.5t-14.5 -89 q0 -35 7 -78t21 -106t21 -100h303q36 0 61 -22.5t25 -55.5q0 -35 -26 -59.5t-60 -24.5h-283q10 -90 -18.5 -206.5t-85.5 -221.5h698q35 0 60.5 -23.5t25.5 -58.5t-25 -57.5t-61 -22.5h-757q-58 0 -91.5 31t-33.5 80q0 36 35 104q104 207 86 375h-127q-34 0 -59 24t-25 60z " />
<glyph unicode="&#xa4;" horiz-adv-x="1271" d="M101.5 264.5q0.5 34.5 23.5 59.5l176 174q-34 69 -37 155q-3 64 0 127q3 89 37 158l-174 176q-24 24 -25 58t21 57q26 25 60 24.5t57 -26.5l161 -162q101 82 236 82q132 0 233 -82l162 162q25 26 58.5 26.5t58.5 -24.5q23 -23 23 -56.5t-25 -58.5l-174 -176 q32 -65 35 -158q3 -64 0 -127q-3 -90 -35 -155l174 -174q25 -25 25 -59.5t-23 -57.5q-25 -23 -58 -22t-59 26l-160 158q-97 -82 -235 -82q-141 0 -238 82l-159 -158q-25 -25 -58 -26t-59 22q-22 23 -21.5 57.5zM416 655q5 -93 67.5 -157t153.5 -64q90 0 151 64t66 157 q3 54 0 123q-5 92 -66 155.5t-151 63.5q-91 0 -153 -63.5t-68 -155.5q-4 -42 0 -123z" />
<glyph unicode="&#xa5;" horiz-adv-x="1325" d="M32.5 1366q2.5 34 30.5 57q26 22 62.5 18.5t58.5 -30.5l478 -598l479 598q22 28 57.5 31.5t63.5 -19.5q27 -22 30 -56t-20 -62l-471 -578q-3 -4 -15 -18t-15 -18t-10 -15.5t-9 -19.5t-4.5 -20t-2.5 -26v-8h246q33 0 56.5 -22.5t23.5 -55.5t-23.5 -55.5t-56.5 -22.5h-246 v-368q0 -36 -23.5 -61t-59.5 -25q-34 0 -59 26t-25 60v368h-244q-34 0 -58 22.5t-24 55.5t24 55.5t58 22.5h244v8q0 12 -1 22t-4.5 20t-5.5 15.5t-9.5 16t-9.5 13.5t-12.5 16t-13.5 16l-469 574q-23 29 -20.5 63z" />
<glyph unicode="&#xa6;" horiz-adv-x="626" d="M223 -201v752q0 35 25 60.5t59 25.5q35 0 59.5 -25.5t24.5 -60.5v-752q0 -37 -24.5 -61.5t-59.5 -24.5q-34 0 -59 25.5t-25 60.5zM223 872v752q0 35 25 60.5t59 25.5q35 0 59.5 -25.5t24.5 -60.5v-752q0 -37 -24.5 -61.5t-59.5 -24.5q-34 0 -59 25.5t-25 60.5z" />
<glyph unicode="&#xa7;" horiz-adv-x="1187" d="M162 -23q0 32 23.5 56t54.5 24q9 0 18.5 -2.5t14.5 -4.5t14.5 -7t11.5 -6q66 -41 146 -62.5t149 -21.5q129 0 192.5 60.5t63.5 142.5q0 25 -4.5 46.5t-10.5 38t-21 31.5l-25 25t-35 21t-38.5 17t-48 16t-51.5 14.5t-59 15.5q-199 51 -279.5 120t-80.5 177q0 100 73 180 q-84 87 -84 225q0 159 119.5 263t304.5 104q123 0 223.5 -34.5t153.5 -82.5q35 -28 35 -71q0 -33 -23.5 -56.5t-56.5 -23.5q-26 0 -57 22q-136 84 -273 84q-129 0 -192.5 -61.5t-63.5 -143.5q0 -44 13.5 -76.5t35 -53.5t60 -38t77 -28t98.5 -27q6 -1 9 -2 q200 -51 280.5 -120t80.5 -177q0 -95 -74 -180q84 -84 84 -223q0 -159 -118.5 -264t-303.5 -105q-124 0 -237 36.5t-168 82.5q-31 28 -31 69zM354 682q0 -53 57 -88.5t210 -69.5q125 -30 190 -61l4 4q39 45 39 88q0 54 -56 89t-210 71q-126 26 -191 61l-4 -4 q-39 -45 -39 -90z" />
<glyph unicode="&#xa8;" horiz-adv-x="737" d="M115 1651q0 40 26 66t66 26q39 0 65.5 -26.5t26.5 -65.5q0 -38 -27 -65t-65 -27q-39 0 -65.5 26.5t-26.5 65.5zM438 1651q0 39 26.5 65.5t65.5 26.5q40 0 66.5 -26t26.5 -66q0 -39 -26.5 -65.5t-66.5 -26.5q-38 0 -65 27t-27 65z" />
<glyph unicode="&#xa9;" horiz-adv-x="1650" d="M199 604q-3 115 0 230q6 178 90 319.5t225 220t311 78.5q127 0 240.5 -46t197 -127t134.5 -196.5t55 -248.5q3 -115 0 -230q-4 -133 -55 -248.5t-134.5 -195.5t-197 -126t-240.5 -46q-260 0 -438.5 173.5t-187.5 442.5zM326 594q12 -222 152 -352.5t347 -130.5t346 130 t152 353q8 128 0 250q-15 225 -153 355t-345 130q-208 0 -347.5 -130.5t-151.5 -354.5q-8 -122 0 -250zM483 625q-9 93 0 194q11 139 108.5 234.5t235.5 95.5q108 0 189 -51t117 -135q10 -23 10 -39q0 -29 -19 -44.5t-45 -15.5q-32 0 -53 37q-25 58 -78 91.5t-121 33.5 q-90 0 -149 -59.5t-68 -155.5q-4 -62 0 -182q8 -95 67.5 -156t149.5 -61q68 0 121 34t78 91q19 38 53 38q26 0 45 -15t19 -44q0 -16 -10 -39q-36 -85 -117 -136.5t-189 -51.5q-138 0 -235 96t-109 240z" />
<glyph unicode="&#xaa;" horiz-adv-x="983" d="M94 889q-7 112 0 227q9 156 104 246t251 90q102 0 193 -30.5t136 -63.5q29 -23 29 -60v-378q0 -86 16.5 -133.5t55.5 -104.5q16 -21 16 -49q0 -32 -22 -54t-56 -22q-42 0 -65 33q-31 39 -47 76q-59 -53 -127 -82t-129 -29q-160 0 -253 91t-102 243zM246 899 q10 -190 203 -190q56 0 116 28.5t99 71.5q-9 59 -9 135v301q-27 20 -86.5 36.5t-119.5 16.5q-98 0 -148 -52t-55 -144q-8 -101 0 -203z" />
<glyph unicode="&#xab;" d="M98 719q0 80 90 153l248 197q28 22 60.5 19t54.5 -29t18 -59.5t-30 -55.5l-252 -196q-19 -14 -19 -29t19 -29l252 -198q26 -20 30 -54.5t-18 -60.5t-54.5 -28.5t-60.5 20.5l-248 196q-90 76 -90 154zM518 719q0 80 90 153l246 197q29 22 62 19t53 -29q23 -27 19.5 -60 t-30.5 -55l-251 -196q-19 -14 -19 -29t19 -29l251 -198q27 -21 30.5 -54.5t-19.5 -60.5q-20 -26 -53 -28.5t-62 20.5l-246 196q-90 76 -90 154z" />
<glyph unicode="&#xac;" horiz-adv-x="1286" d="M123 717q0 35 24.5 58.5t59.5 23.5h821q64 0 99.5 -38.5t35.5 -96.5v-385q0 -35 -23.5 -59.5t-58.5 -24.5q-34 0 -58 25t-24 59v358h-792q-35 0 -59.5 23t-24.5 57z" />
<glyph unicode="&#xad;" horiz-adv-x="694" d="M104 586q0 35 25.5 59.5t60.5 24.5h314q35 0 60.5 -24.5t25.5 -59.5t-25 -58.5t-61 -23.5h-314q-35 0 -60.5 24t-25.5 58z" />
<glyph unicode="&#xae;" horiz-adv-x="1261" d="M162 836q-3 74 0 149q8 200 140.5 333.5t324.5 133.5q190 0 322.5 -133.5t140.5 -333.5q3 -75 0 -149q-8 -200 -140.5 -334.5t-322.5 -134.5q-192 0 -324.5 134.5t-140.5 334.5zM258 827q13 -167 114 -265.5t255 -98.5q152 0 253.5 98.5t114.5 265.5q7 84 0 164 q-13 169 -114.5 268t-253.5 99q-154 0 -255 -99t-114 -268q-7 -80 0 -164zM430 682v446q0 29 17.5 47.5t48.5 18.5h161q79 0 132 -46t53 -128q0 -124 -115 -158l121 -151q12 -12 12 -33t-14 -34t-37 -13q-17 0 -35 18l-141 176q-14 19 -35 19h-74v-162q0 -22 -13 -35.5 t-36 -13.5q-18 0 -31.5 14t-13.5 35zM524 932h121q98 0 98 86q0 88 -94 88h-125v-174z" />
<glyph unicode="&#xaf;" horiz-adv-x="737" d="M133 1642q0 29 20.5 49.5t51.5 20.5h336q29 0 49 -20.5t20 -49.5q0 -31 -20 -51t-49 -20h-336q-31 0 -51.5 20t-20.5 51z" />
<glyph unicode="&#xb0;" horiz-adv-x="714" d="M102 1202q0 106 75 181t179 75q105 0 180.5 -75.5t75.5 -180.5q0 -104 -76 -179t-180 -75t-179 75t-75 179zM215 1202q0 -58 41 -98.5t100 -40.5t100.5 40.5t41.5 98.5q0 60 -41.5 100.5t-100.5 40.5t-100 -40.5t-41 -100.5z" />
<glyph unicode="&#xb1;" horiz-adv-x="1286" d="M123 80q0 35 24.5 58.5t59.5 23.5h872q35 0 59.5 -23.5t24.5 -58.5q0 -33 -25 -56.5t-59 -23.5h-872q-35 0 -59.5 23t-24.5 57zM123 735q0 34 24.5 58t59.5 24h356v357q0 34 24 58.5t58 24.5q35 0 58.5 -24.5t23.5 -58.5v-357h352q35 0 59.5 -24t24.5 -58 q0 -33 -25 -56.5t-59 -23.5h-352v-360q0 -35 -23.5 -60.5t-58.5 -25.5q-33 0 -57.5 26.5t-24.5 59.5v360h-356q-35 0 -59.5 23t-24.5 57z" />
<glyph unicode="&#xb2;" horiz-adv-x="935" d="M141 1260q0 25 19 49q41 59 116.5 101t174.5 42q147 0 227 -76t80 -192q0 -57 -15 -100.5t-55 -87t-86.5 -79.5t-132.5 -94q-79 -52 -118 -91.5t-46 -78.5h395q34 0 57 -21t23 -54t-23 -53.5t-57 -20.5h-456q-43 0 -71 30t-28 76q0 156 205 301q13 9 58 38.5t71.5 49.5 t60.5 51t51 63.5t17 66.5q0 49 -40 87t-117 38q-99 0 -166 -82q-31 -39 -66 -39q-32 0 -55 21t-23 55z" />
<glyph unicode="&#xb3;" horiz-adv-x="884" d="M125 559q0 31 22.5 52.5t55.5 21.5q12 0 38 -1t40 -1q150 0 237.5 52.5t87.5 145.5q0 61 -41 96.5t-108 35.5q-23 0 -50.5 -4.5t-37.5 -4.5q-29 0 -50.5 18t-21.5 48q0 31 25 53l182 197h-301q-32 0 -55 23t-23 55t22.5 53.5t55.5 21.5h403q43 0 73 -25.5t30 -66.5 q0 -43 -43 -90l-140 -147q105 -14 169.5 -85.5t64.5 -175.5q0 -163 -131.5 -256.5t-360.5 -93.5q-45 0 -65 2q-33 2 -55.5 23t-22.5 53z" />
<glyph unicode="&#xb4;" horiz-adv-x="737" d="M160 1612q0 44 37 63l278 144q20 8 35 8q29 0 49.5 -20.5t20.5 -49.5q0 -41 -39 -61l-277 -144q-17 -10 -37 -10q-29 0 -48 20t-19 50z" />
<glyph unicode="&#xb6;" horiz-adv-x="1452" d="M197 985q0 138 64 242t168.5 156.5t232.5 52.5h446q70 0 103.5 -36t33.5 -100v-1607q0 -35 -24 -60.5t-58 -25.5t-59 25.5t-25 60.5v1581h-159v-1581q0 -37 -23.5 -61.5t-58.5 -24.5q-34 0 -59 25t-25 61v842h-76q-214 0 -347.5 119.5t-133.5 330.5zM369 983 q0 -135 77.5 -211t235.5 -76h72v578h-80q-150 0 -227.5 -77.5t-77.5 -213.5z" />
<glyph unicode="&#xb7;" horiz-adv-x="542" d="M186 668v110q0 35 24.5 60.5t59.5 25.5t59.5 -25.5t24.5 -60.5v-110q0 -36 -24 -61t-60 -25q-34 0 -59 25.5t-25 60.5z" />
<glyph unicode="&#xb8;" horiz-adv-x="737" d="M221 -467q0 47 49 64q93 36 125.5 64.5t32.5 62.5q0 21 -16.5 39t-46.5 18q-15 0 -34 -3t-30 -3q-33 0 -51.5 27.5t-5.5 60.5l53 149q18 51 65 51q28 0 44 -15.5t16 -41.5q0 -12 -4 -24l-29 -74q83 -9 131.5 -58t48.5 -124q0 -169 -254 -254q-33 -12 -63.5 4t-30.5 57z " />
<glyph unicode="&#xb9;" horiz-adv-x="684" d="M83.5 1238.5q9.5 32.5 39.5 49.5l215 129q32 19 55 19q39 0 62.5 -24.5t23.5 -63.5v-773q0 -33 -21.5 -55t-54.5 -22t-56 23t-23 54v648l-127 -68q-29 -15 -58.5 -8.5t-46.5 33.5q-18 26 -8.5 58.5z" />
<glyph unicode="&#xba;" horiz-adv-x="958" d="M113 901q-10 105 0 205q12 150 114 248t252 98q151 0 253.5 -98t113.5 -248q9 -99 0 -205q-11 -151 -113 -248.5t-254 -97.5q-150 0 -252 98t-114 248zM266 911q9 -91 67.5 -146.5t145.5 -55.5q88 0 147 55.5t68 146.5q6 94 0 185q-9 90 -68.5 146t-146.5 56t-146 -56 t-67 -146q-10 -91 0 -185z" />
<glyph unicode="&#xbb;" d="M162.5 437.5q3.5 33.5 30.5 54.5l251 198q19 14 19 29t-19 29l-251 196q-27 22 -30.5 55t19.5 60q20 26 53 29t62 -19l246 -197q90 -73 90 -153q0 -78 -90 -154l-246 -196q-29 -23 -62 -20.5t-53 28.5q-23 27 -19.5 60.5zM582 437.5q4 34.5 30 54.5l252 198q19 14 19 29 t-19 29l-252 196q-26 22 -30 55.5t18 59.5t54.5 29t60.5 -19l248 -197q90 -73 90 -153q0 -78 -90 -154l-248 -196q-28 -23 -60.5 -20.5t-54.5 28.5t-18 60.5z" />
<glyph unicode="&#xbc;" horiz-adv-x="1976" d="M87.5 1241.5q10.5 32.5 35.5 46.5l237 133q23 13 41 13q34 0 56 -23t22 -57v-779q0 -33 -21.5 -55t-54.5 -22t-56 23t-23 54v648l-127 -68q-29 -15 -57.5 -7.5t-47.5 36.5q-15 25 -4.5 57.5zM498 39l561 1409q12 30 42 43t58 2q29 -10 41 -40.5t0 -59.5l-557 -1411 q-12 -28 -41.5 -40.5t-58.5 -2.5t-42.5 39.5t-2.5 60.5zM1030 313q0 50 47 99l414 469q49 55 100 55q50 0 80.5 -33t30.5 -80v-473h80q29 0 51 -19t22 -50q0 -32 -20.5 -52t-52.5 -20h-80v-135q0 -30 -20.5 -52t-51.5 -22q-32 0 -51.5 20.5t-19.5 53.5v133h-416 q-49 0 -81 29t-32 77zM1212 350h347v389z" />
<glyph unicode="&#xbd;" horiz-adv-x="1941" d="M83.5 1238.5q9.5 32.5 39.5 49.5l215 129q32 19 55 19q39 0 62.5 -24.5t23.5 -63.5v-773q0 -33 -21.5 -55t-54.5 -22t-56 23t-23 54v648l-127 -68q-29 -15 -58.5 -8.5t-46.5 33.5q-18 26 -8.5 58.5zM483 39l561 1409q12 30 42.5 43t58.5 2q29 -10 41 -40.5t0 -59.5 l-557 -1411q-12 -28 -42 -40.5t-59 -2.5t-42.5 39.5t-2.5 60.5zM1145 756q0 26 18 49q41 59 116.5 101t174.5 42q147 0 227 -76t80 -192q0 -57 -15 -100.5t-54.5 -87t-86.5 -79.5t-132 -94q-80 -52 -118.5 -91t-45.5 -78h395q34 0 57 -21.5t23 -54.5t-23 -53.5t-57 -20.5 h-457q-43 0 -70.5 30t-27.5 76q0 157 205 302q13 9 58 38.5t71.5 49.5t60.5 50.5t51 63t17 66.5q0 49 -40.5 87t-117.5 38q-99 0 -166 -82q-31 -39 -65 -39q-32 0 -55 21t-23 55z" />
<glyph unicode="&#xbe;" horiz-adv-x="2183" d="M125 559q0 31 22.5 52.5t55.5 21.5q12 0 38 -1t40 -1q150 0 237.5 52.5t87.5 145.5q0 61 -41 96.5t-108 35.5q-23 0 -50.5 -4.5t-37.5 -4.5q-29 0 -50.5 18t-21.5 48q0 31 25 53l182 197h-301q-32 0 -55 23t-23 55t22.5 53.5t55.5 21.5h403q43 0 73 -25.5t30 -66.5 q0 -43 -43 -90l-140 -147q105 -14 169.5 -85.5t64.5 -175.5q0 -163 -131.5 -256.5t-360.5 -93.5q-45 0 -65 2q-33 2 -55.5 23t-22.5 53zM721 39l561 1409q12 30 42 43t58 2q29 -10 41 -40.5t0 -59.5l-557 -1411q-12 -28 -41.5 -40.5t-58.5 -2.5t-42.5 39.5t-2.5 60.5z M1262 313q0 50 47 99l413 469q49 55 101 55q50 0 80 -33t30 -80v-473h80q29 0 51.5 -19t22.5 -50q0 -32 -21 -52t-53 -20h-80v-135q0 -30 -20 -52t-51 -22q-32 0 -52 21t-20 53v133h-416q-48 0 -80 29t-32 77zM1444 350h346v389z" />
<glyph unicode="&#xbf;" horiz-adv-x="1142" d="M119 373q0 98 25.5 172.5t84 135t132.5 107t192 101.5q28 14 61 14q30 0 54 -22.5t24 -55.5q0 -56 -57 -82q-200 -87 -274 -162.5t-74 -203.5q0 -105 69 -169.5t191 -64.5q104 0 176 33t133 109q30 37 70 37q33 0 57.5 -26t24.5 -60q0 -27 -23 -60q-159 -194 -438 -194 q-191 0 -309.5 109t-118.5 282zM524 1262v108q0 34 24.5 58t59.5 24q34 0 59 -25t25 -57v-108q0 -34 -25 -58t-59 -24q-35 0 -59.5 24t-24.5 58z" />
<glyph unicode="&#xc0;" horiz-adv-x="1382" d="M51 84q0 19 4 29l426 1187q28 77 84 116.5t127 39.5t126.5 -39.5t82.5 -116.5l426 -1187q4 -8 4 -29q0 -35 -22 -60.5t-60 -25.5q-27 0 -49 14.5t-31 38.5l-151 428h-653l-152 -428q-9 -24 -31 -38.5t-49 -14.5q-38 0 -60 25.5t-22 60.5zM403 1755q0 29 19.5 49.5 t48.5 20.5q17 0 37 -8l276 -144q39 -20 39 -63q0 -29 -20 -49.5t-49 -20.5q-17 0 -41 12l-273 142q-37 19 -37 61zM422 639h539l-216 612q-13 41 -53 41t-53 -41z" />
<glyph unicode="&#xc1;" horiz-adv-x="1382" d="M51 84q0 19 4 29l426 1187q28 77 84 116.5t127 39.5t126.5 -39.5t82.5 -116.5l426 -1187q4 -8 4 -29q0 -35 -22 -60.5t-60 -25.5q-27 0 -49 14.5t-31 38.5l-151 428h-653l-152 -428q-9 -24 -31 -38.5t-49 -14.5q-38 0 -60 25.5t-22 60.5zM422 639h539l-216 612 q-13 41 -53 41t-53 -41zM553 1610q0 44 37 63l278 144q20 8 35 8q29 0 49.5 -20.5t20.5 -49.5q0 -41 -39 -61l-277 -144q-17 -10 -36 -10q-29 0 -48.5 20.5t-19.5 49.5z" />
<glyph unicode="&#xc2;" horiz-adv-x="1382" d="M51 84q0 19 4 29l426 1187q28 77 84 116.5t127 39.5t126.5 -39.5t82.5 -116.5l426 -1187q4 -8 4 -29q0 -35 -22 -60.5t-60 -25.5q-27 0 -49 14.5t-31 38.5l-151 428h-653l-152 -428q-9 -24 -31 -38.5t-49 -14.5q-38 0 -60 25.5t-22 60.5zM412 1610q0 36 28 57l191 143 q36 25 61 25q19 0 60 -25l192 -143q31 -23 31 -57q0 -28 -20.5 -49t-49.5 -21q-26 0 -47 16l-166 125l-166 -125q-21 -16 -45 -16q-30 0 -49.5 20.5t-19.5 49.5zM422 639h539l-216 612q-13 41 -53 41t-53 -41z" />
<glyph unicode="&#xc3;" horiz-adv-x="1382" d="M51 84q0 19 4 29l426 1187q28 77 84 116.5t127 39.5t126.5 -39.5t82.5 -116.5l426 -1187q4 -8 4 -29q0 -35 -22 -60.5t-60 -25.5q-27 0 -49 14.5t-31 38.5l-151 428h-653l-152 -428q-9 -24 -31 -38.5t-49 -14.5q-38 0 -60 25.5t-22 60.5zM391 1632q0 27 29 56 q79 69 153 69q54 0 126.5 -37t101.5 -37q28 0 62.5 28t58.5 28q30 0 48.5 -20.5t18.5 -49.5q0 -31 -28 -55q-80 -70 -152 -70q-52 0 -127 37t-102 37q-28 0 -62.5 -27.5t-58.5 -27.5q-30 0 -49 20t-19 49zM422 639h539l-216 612q-13 41 -53 41t-53 -41z" />
<glyph unicode="&#xc4;" horiz-adv-x="1382" d="M51 84q0 19 4 29l426 1187q28 77 84 116.5t127 39.5t126.5 -39.5t82.5 -116.5l426 -1187q4 -8 4 -29q0 -35 -22 -60.5t-60 -25.5q-27 0 -49 14.5t-31 38.5l-151 428h-653l-152 -428q-9 -24 -31 -38.5t-49 -14.5q-38 0 -60 25.5t-22 60.5zM422 639h539l-216 612 q-13 41 -53 41t-53 -41zM438 1651q0 40 26 66t66 26q39 0 66 -26.5t27 -65.5q0 -38 -27.5 -65t-65.5 -27q-39 0 -65.5 26.5t-26.5 65.5zM762 1651q0 39 26.5 65.5t65.5 26.5q40 0 66 -26t26 -66q0 -39 -26.5 -65.5t-65.5 -26.5q-38 0 -65 27t-27 65z" />
<glyph unicode="&#xc5;" horiz-adv-x="1382" d="M51 84q0 19 4 29l426 1187q28 77 84 116.5t127 39.5t126.5 -39.5t82.5 -116.5l426 -1187q4 -8 4 -29q0 -35 -22 -60.5t-60 -25.5q-27 0 -49 14.5t-31 38.5l-151 428h-653l-152 -428q-9 -24 -31 -38.5t-49 -14.5q-38 0 -60 25.5t-22 60.5zM422 639h539l-216 612 q-13 41 -53 41t-53 -41zM496 1739q0 79 58 137.5t138 58.5q81 0 139 -58t58 -138q0 -82 -57.5 -139.5t-139.5 -57.5q-80 0 -138 58t-58 139zM602 1739q0 -38 26.5 -65t63.5 -27q38 0 64 27t26 65q0 37 -26 63.5t-64 26.5q-37 0 -63.5 -26.5t-26.5 -63.5z" />
<glyph unicode="&#xc6;" horiz-adv-x="2136" d="M37 78q0 25 12 43l807 1198q44 66 102 91.5t138 25.5h813q36 0 61 -23.5t25 -58.5q0 -33 -26 -56.5t-60 -23.5h-680v-471h663q34 0 58 -22.5t24 -57.5q0 -32 -25 -56t-57 -24h-663v-481h684q34 0 60 -23.5t26 -56.5q0 -35 -25 -58.5t-61 -23.5h-709q-67 0 -105 40t-38 99 v357h-555l-313 -467q-24 -37 -72 -37q-37 0 -60.5 25.5t-23.5 60.5zM612 655h449v617q-36 0 -66 -45z" />
<glyph unicode="&#xc7;" horiz-adv-x="1355" d="M143 551q-12 168 0 332q13 161 88 290.5t205 205t291 75.5q174 0 317.5 -93.5t204.5 -246.5q6 -21 6 -39q0 -32 -25 -55t-54 -23q-56 0 -78 54q-48 110 -148 175.5t-223 65.5q-175 0 -288 -117t-128 -301q-9 -158 0 -315q15 -185 128 -301.5t288 -116.5q124 0 223.5 66.5 t147.5 177.5q22 53 78 53q29 0 54 -23t25 -57q0 -15 -6 -36q-55 -138 -177.5 -228.5t-276.5 -109.5l-29 -76q81 -6 130.5 -56.5t49.5 -125.5q0 -169 -252 -254q-34 -12 -65 4t-31 57q0 47 51 64q93 36 124.5 63.5t31.5 60.5q0 22 -17 42t-47 20q-15 0 -32.5 -4t-30.5 -4 q-33 0 -51.5 27.5t-5.5 60.5l43 123q-220 22 -363 179t-158 386z" />
<glyph unicode="&#xc8;" horiz-adv-x="1280" d="M205 139v1157q0 61 38 100.5t105 39.5h707q34 0 59 -23.5t25 -58.5q0 -33 -25.5 -56.5t-58.5 -23.5h-682v-471h663q34 0 58 -22.5t24 -57.5q0 -32 -25 -56t-57 -24h-663v-481h686q33 0 58.5 -23.5t25.5 -56.5q0 -35 -25 -58.5t-59 -23.5h-711q-67 0 -105 40t-38 99z M420 1755q0 30 19 50t48 20q17 0 37 -8l277 -144q39 -20 39 -63q0 -29 -20.5 -49.5t-49.5 -20.5q-17 0 -41 12l-272 142q-37 19 -37 61z" />
<glyph unicode="&#xc9;" horiz-adv-x="1280" d="M205 139v1157q0 61 38 100.5t105 39.5h707q34 0 59 -23.5t25 -58.5q0 -33 -25.5 -56.5t-58.5 -23.5h-682v-471h663q34 0 58 -22.5t24 -57.5q0 -32 -25 -56t-57 -24h-663v-481h686q33 0 58.5 -23.5t25.5 -56.5q0 -35 -25 -58.5t-59 -23.5h-711q-67 0 -105 40t-38 99z M442 1610q0 44 37 63l279 144q20 8 35 8q29 0 49 -20.5t20 -49.5q0 -41 -39 -61l-276 -144q-17 -10 -37 -10q-29 0 -48.5 20.5t-19.5 49.5z" />
<glyph unicode="&#xca;" horiz-adv-x="1280" d="M205 139v1157q0 61 38 100.5t105 39.5h707q34 0 59 -23.5t25 -58.5q0 -33 -25.5 -56.5t-58.5 -23.5h-682v-471h663q34 0 58 -22.5t24 -57.5q0 -32 -25 -56t-57 -24h-663v-481h686q33 0 58.5 -23.5t25.5 -56.5q0 -35 -25 -58.5t-59 -23.5h-711q-67 0 -105 40t-38 99z M399 1610q0 35 29 57l190 143q36 25 62 25q7 0 12.5 -1t12 -4t10 -5t12.5 -7.5t12 -7.5l193 -143q31 -23 31 -57q0 -28 -20.5 -49t-49.5 -21q-26 0 -47 16l-166 125l-166 -125q-21 -16 -45 -16q-30 0 -50 21t-20 49z" />
<glyph unicode="&#xcb;" horiz-adv-x="1280" d="M205 139v1157q0 61 38 100.5t105 39.5h707q34 0 59 -23.5t25 -58.5q0 -33 -25.5 -56.5t-58.5 -23.5h-682v-471h663q34 0 58 -22.5t24 -57.5q0 -32 -25 -56t-57 -24h-663v-481h686q33 0 58.5 -23.5t25.5 -56.5q0 -35 -25 -58.5t-59 -23.5h-711q-67 0 -105 40t-38 99z M432 1649q0 40 26 66t66 26q39 0 65.5 -26.5t26.5 -65.5q0 -38 -27 -65.5t-65 -27.5q-39 0 -65.5 27t-26.5 66zM756 1649q0 39 26.5 65.5t65.5 26.5q40 0 66 -26t26 -66q0 -39 -26.5 -66t-65.5 -27q-38 0 -65 27.5t-27 65.5z" />
<glyph unicode="&#xcc;" horiz-adv-x="577" d="M6 1755q0 29 19.5 49.5t48.5 20.5q17 0 37 -8l276 -144q39 -20 39 -63q0 -29 -20.5 -49.5t-49.5 -20.5q-17 0 -41 12l-272 142q-37 19 -37 61zM203 78v1280q0 35 25 60.5t59 25.5q36 0 60 -25t24 -61v-1280q0 -36 -24 -61t-60 -25q-35 0 -59.5 25.5t-24.5 60.5z" />
<glyph unicode="&#xcd;" horiz-adv-x="577" d="M135 1610q0 44 37 63l279 144q20 8 34 8q29 0 49.5 -20.5t20.5 -49.5q0 -41 -39 -61l-276 -144q-17 -10 -37 -10q-29 0 -48.5 20.5t-19.5 49.5zM203 78v1280q0 35 25 60.5t59 25.5q36 0 60 -25t24 -61v-1280q0 -36 -24 -61t-60 -25q-35 0 -59.5 25.5t-24.5 60.5z" />
<glyph unicode="&#xce;" horiz-adv-x="577" d="M6 1610q0 35 29 57l190 143q36 25 62 25q7 0 12.5 -1t12 -4t10 -5t12.5 -7.5t12 -7.5l193 -143q30 -23 30 -57q0 -28 -20 -49t-49 -21q-26 0 -47 16l-166 125l-166 -125q-21 -16 -45 -16q-30 0 -50 21t-20 49zM203 78v1280q0 35 25 60.5t59 25.5q36 0 60 -25t24 -61 v-1280q0 -36 -24 -61t-60 -25q-35 0 -59.5 25.5t-24.5 60.5z" />
<glyph unicode="&#xcf;" horiz-adv-x="577" d="M35 1651q0 40 26 66t66 26q39 0 65.5 -26.5t26.5 -65.5q0 -38 -27 -65t-65 -27q-39 0 -65.5 26.5t-26.5 65.5zM203 78v1280q0 35 25 60.5t59 25.5q36 0 60 -25t24 -61v-1280q0 -36 -24 -61t-60 -25q-35 0 -59.5 25.5t-24.5 60.5zM358 1651q0 39 27 65.5t66 26.5 q40 0 66 -26t26 -66q0 -39 -26.5 -65.5t-65.5 -26.5q-38 0 -65.5 27t-27.5 65z" />
<glyph unicode="&#xd0;" horiz-adv-x="1472" d="M-6 713q0 33 22.5 55.5t57.5 22.5h131v505q0 62 37.5 101t103.5 39h342q152 0 272.5 -45.5t198.5 -127.5t121 -191.5t51 -242.5q6 -116 0 -223q-8 -133 -51 -242t-121 -191t-198.5 -127.5t-272.5 -45.5h-342q-65 0 -103 40t-38 99v494h-131q-35 0 -57.5 23t-22.5 57z M373 162h315q228 0 345 119t130 329q7 114 0 213q-11 211 -128.5 331t-346.5 120h-315v-483h323q34 0 57 -23t23 -55q0 -34 -23 -57t-57 -23h-323v-471z" />
<glyph unicode="&#xd1;" horiz-adv-x="1574" d="M205 78v1214q0 64 40 107t103 43q92 0 139 -80l717 -1163h4q-1 27 -3 80.5t-3.5 109t-1.5 115.5v854q0 35 25 60.5t59 25.5q36 0 60 -25t24 -61v-1219q0 -61 -38 -102t-97 -41q-88 0 -135 76l-727 1177h-4q6 -252 6 -317v-854q0 -37 -23.5 -61.5t-60.5 -24.5 q-34 0 -59 26t-25 60zM492 1636q0 28 28 56q79 69 154 69q54 0 126 -36.5t101 -36.5q28 0 62.5 27.5t58.5 27.5q30 0 49 -20.5t19 -49.5q0 -30 -29 -55q-80 -70 -152 -70q-52 0 -127 37t-102 37q-28 0 -62.5 -27.5t-58.5 -27.5q-30 0 -48.5 20t-18.5 49z" />
<glyph unicode="&#xd2;" horiz-adv-x="1492" d="M143 551q-12 168 0 332q19 244 188 407.5t412 163.5q162 0 297.5 -76t217 -206.5t92.5 -288.5q12 -164 0 -332q-11 -160 -92.5 -290.5t-217 -205.5t-297.5 -75q-161 0 -294.5 75t-214 205t-91.5 291zM311 559q17 -183 137 -300.5t295 -117.5q179 0 300.5 117.5 t136.5 300.5q15 159 0 318q-15 181 -137 298t-300 117q-175 0 -295 -116.5t-137 -298.5q-12 -159 0 -318zM483 1755q0 29 19.5 49.5t48.5 20.5q17 0 37 -8l276 -144q39 -20 39 -63q0 -29 -20 -49.5t-49 -20.5q-17 0 -41 12l-273 142q-37 19 -37 61z" />
<glyph unicode="&#xd3;" horiz-adv-x="1492" d="M143 551q-12 168 0 332q19 244 188 407.5t412 163.5q162 0 297.5 -76t217 -206.5t92.5 -288.5q12 -164 0 -332q-11 -160 -92.5 -290.5t-217 -205.5t-297.5 -75q-161 0 -294.5 75t-214 205t-91.5 291zM311 559q17 -183 137 -300.5t295 -117.5q179 0 300.5 117.5 t136.5 300.5q15 159 0 318q-15 181 -137 298t-300 117q-175 0 -295 -116.5t-137 -298.5q-12 -159 0 -318zM586 1610q0 44 37 63l278 144q20 8 35 8q29 0 49.5 -20.5t20.5 -49.5q0 -41 -39 -61l-277 -144q-17 -10 -37 -10q-29 0 -48 20t-19 50z" />
<glyph unicode="&#xd4;" horiz-adv-x="1492" d="M143 551q-12 168 0 332q19 244 188 407.5t412 163.5q162 0 297.5 -76t217 -206.5t92.5 -288.5q12 -164 0 -332q-11 -160 -92.5 -290.5t-217 -205.5t-297.5 -75q-161 0 -294.5 75t-214 205t-91.5 291zM311 559q17 -183 137 -300.5t295 -117.5q179 0 300.5 117.5 t136.5 300.5q15 159 0 318q-15 181 -137 298t-300 117q-175 0 -295 -116.5t-137 -298.5q-12 -159 0 -318zM467 1610q0 35 29 57l190 143q36 25 62 25q7 0 12.5 -1t12 -4t10 -5t12.5 -7.5t12 -7.5l192 -143q31 -23 31 -57q0 -28 -20 -49t-49 -21q-27 0 -48 16l-165 125 l-166 -125q-21 -16 -45 -16q-30 0 -50 21t-20 49z" />
<glyph unicode="&#xd5;" horiz-adv-x="1492" d="M143 551q-12 168 0 332q19 244 188 407.5t412 163.5q162 0 297.5 -76t217 -206.5t92.5 -288.5q12 -164 0 -332q-11 -160 -92.5 -290.5t-217 -205.5t-297.5 -75q-161 0 -294.5 75t-214 205t-91.5 291zM311 559q17 -183 137 -300.5t295 -117.5q179 0 300.5 117.5 t136.5 300.5q15 159 0 318q-15 181 -137 298t-300 117q-175 0 -295 -116.5t-137 -298.5q-12 -159 0 -318zM444 1628q0 26 29 55q80 70 154 70q54 0 126 -37t101 -37q28 0 62.5 28t58.5 28q30 0 48.5 -20.5t18.5 -49.5q0 -31 -28 -55q-80 -70 -152 -70q-52 0 -127 37t-102 37 q-28 0 -62.5 -27.5t-58.5 -27.5q-30 0 -49 20t-19 49z" />
<glyph unicode="&#xd6;" horiz-adv-x="1492" d="M143 551q-12 168 0 332q19 244 188 407.5t412 163.5q162 0 297.5 -76t217 -206.5t92.5 -288.5q12 -164 0 -332q-11 -160 -92.5 -290.5t-217 -205.5t-297.5 -75q-161 0 -294.5 75t-214 205t-91.5 291zM311 559q17 -183 137 -300.5t295 -117.5q179 0 300.5 117.5 t136.5 300.5q15 159 0 318q-15 181 -137 298t-300 117q-175 0 -295 -116.5t-137 -298.5q-12 -159 0 -318zM494 1651q0 40 26 66t66 26q39 0 65.5 -26.5t26.5 -65.5q0 -38 -27 -65t-65 -27q-39 0 -65.5 26.5t-26.5 65.5zM817 1651q0 39 26.5 65.5t65.5 26.5q40 0 66 -26 t26 -66q0 -39 -26.5 -65.5t-65.5 -26.5q-38 0 -65 27t-27 65z" />
<glyph unicode="&#xd7;" horiz-adv-x="1286" d="M172 329.5q0 34.5 25 59.5l329 330l-329 330q-25 25 -25 59t23 57q26 25 59 24t59 -26l330 -329l326 325q27 25 61.5 25.5t59.5 -25.5q23 -25 21.5 -59.5t-26.5 -57.5l-325 -323l325 -322q25 -23 26.5 -57t-21.5 -59q-25 -26 -59.5 -25.5t-61.5 25.5l-326 323l-330 -330 q-26 -25 -59 -26t-59 24q-23 23 -23 57.5z" />
<glyph unicode="&#xd8;" horiz-adv-x="1495" d="M145 551q-12 168 0 332q19 244 188 407.5t412 163.5q165 0 306 -82l28 45q17 28 47 35t56 -10t31.5 -46.5t-11.5 -58.5l-33 -55q79 -77 126.5 -180t56.5 -219q12 -164 0 -332q-11 -160 -92.5 -290.5t-217 -205.5t-297.5 -75q-171 0 -309 81l-26 -45q-17 -27 -47 -33.5 t-56 9.5q-26 15 -32 46.5t10 57.5l34 58q-159 162 -174 397zM313 559q12 -143 97 -256l559 930q-105 59 -224 59q-175 0 -295 -116.5t-137 -298.5q-12 -159 0 -318zM522 203q100 -62 223 -62q179 0 300.5 117.5t136.5 300.5q15 159 0 318q-12 146 -103 258z" />
<glyph unicode="&#xd9;" horiz-adv-x="1531" d="M186 582v776q0 35 25 60.5t59 25.5q35 0 59.5 -25.5t24.5 -60.5v-774q0 -201 115.5 -322t296.5 -121t296.5 121t115.5 322v774q0 35 25 60.5t59 25.5q35 0 59.5 -25.5t24.5 -60.5v-776q0 -266 -164.5 -434t-415.5 -168t-415.5 168t-164.5 434zM543 1755q0 30 19 50t48 20 q17 0 37 -8l277 -144q39 -20 39 -63q0 -29 -20.5 -49.5t-49.5 -20.5q-17 0 -41 12l-272 142q-37 19 -37 61z" />
<glyph unicode="&#xda;" horiz-adv-x="1531" d="M186 582v776q0 35 25 60.5t59 25.5q35 0 59.5 -25.5t24.5 -60.5v-774q0 -201 115.5 -322t296.5 -121t296.5 121t115.5 322v774q0 35 25 60.5t59 25.5q35 0 59.5 -25.5t24.5 -60.5v-776q0 -266 -164.5 -434t-415.5 -168t-415.5 168t-164.5 434zM565 1610q0 44 37 63 l279 144q20 8 34 8q29 0 49.5 -20.5t20.5 -49.5q0 -41 -39 -61l-276 -144q-17 -10 -37 -10q-29 0 -48.5 20.5t-19.5 49.5z" />
<glyph unicode="&#xdb;" horiz-adv-x="1531" d="M186 582v776q0 35 25 60.5t59 25.5q35 0 59.5 -25.5t24.5 -60.5v-774q0 -201 115.5 -322t296.5 -121t296.5 121t115.5 322v774q0 35 25 60.5t59 25.5q35 0 59.5 -25.5t24.5 -60.5v-776q0 -266 -164.5 -434t-415.5 -168t-415.5 168t-164.5 434zM485 1610q0 35 29 57 l191 143q36 25 61 25q7 0 12.5 -1t12 -4t10 -5t12.5 -7.5t12 -7.5l193 -143q31 -23 31 -57q0 -28 -20.5 -49t-49.5 -21q-26 0 -47 16l-166 125l-166 -125q-21 -16 -45 -16q-30 0 -50 21t-20 49z" />
<glyph unicode="&#xdc;" horiz-adv-x="1531" d="M186 582v776q0 35 25 60.5t59 25.5q35 0 59.5 -25.5t24.5 -60.5v-774q0 -201 115.5 -322t296.5 -121t296.5 121t115.5 322v774q0 35 25 60.5t59 25.5q35 0 59.5 -25.5t24.5 -60.5v-776q0 -266 -164.5 -434t-415.5 -168t-415.5 168t-164.5 434zM512 1651q0 40 26 66t66 26 q39 0 65.5 -26.5t26.5 -65.5q0 -38 -27 -65t-65 -27q-39 0 -65.5 26.5t-26.5 65.5zM836 1651q0 39 26.5 65.5t65.5 26.5q40 0 66 -26t26 -66q0 -39 -26.5 -65.5t-65.5 -26.5q-38 0 -65 27t-27 65z" />
<glyph unicode="&#xdd;" horiz-adv-x="1325" d="M33 1360q0 33 25.5 57.5t60.5 24.5q40 0 65 -31l478 -598l479 598q26 33 65 33q35 0 60.5 -25t25.5 -59q0 -32 -20 -55l-471 -578q-3 -4 -15 -18t-15 -18t-10 -15.5t-9 -19.5t-4.5 -20t-2.5 -26v-532q0 -36 -23.5 -61t-59.5 -25q-34 0 -59 26t-25 60v532q0 12 -1 22 t-4.5 20t-5.5 15.5t-9.5 16t-9.5 13.5t-12.5 16t-13.5 16l-469 574q-20 23 -20 57zM451 1610q0 44 36 63l279 144q20 8 35 8q29 0 49 -20.5t20 -49.5q0 -41 -39 -61l-276 -144q-17 -10 -37 -10q-29 0 -48 20t-19 50z" />
<glyph unicode="&#xde;" horiz-adv-x="1318" d="M205 78v1288q0 35 24.5 60.5t59.5 25.5t59.5 -25.5t24.5 -60.5v-199h385q95 0 179 -30.5t148 -86.5t101 -141.5t37 -189.5q0 -211 -134 -331t-348 -120h-368v-190q0 -36 -24 -61t-60 -25q-34 0 -59 25.5t-25 60.5zM373 430h366q160 0 236 77t76 212q0 133 -76 211 t-225 78h-377v-578z" />
<glyph unicode="&#xdf;" horiz-adv-x="1357" d="M188 78v954q0 200 116 309t329 109q169 0 275 -82.5t106 -214.5q0 -53 -17.5 -97.5t-42.5 -75.5t-50 -58.5t-42.5 -59.5t-17.5 -65q0 -52 35.5 -81t130.5 -65q143 -52 208.5 -131t65.5 -194q0 -149 -112.5 -246.5t-292.5 -97.5q-177 0 -320 114q-26 21 -31 56t13 59 q19 27 51 31.5t65 -17.5q21 -15 38.5 -28.5t37.5 -25t41 -19.5t49 -12.5t62 -4.5q106 0 169.5 51t63.5 148q0 71 -44 111t-148 75q-135 47 -192.5 107t-57.5 164q0 48 18 89.5t43.5 70.5t51 56.5t43.5 60t18 67.5q0 75 -56 119t-161 44q-135 0 -207 -68t-72 -208v-944 q0 -37 -23.5 -61.5t-60.5 -24.5q-34 0 -58 25t-24 61z" />
<glyph unicode="&#xe0;" d="M123 330q0 143 107 237.5t305 94.5q125 0 286 -44v84q0 123 -62 179.5t-194 56.5q-107 0 -243 -53q-50 -19 -84.5 1.5t-34.5 61.5q0 54 53 78q54 27 142 46.5t184 19.5q190 0 296.5 -94t106.5 -289v-545q0 -47 -35 -68q-53 -40 -169 -77t-249 -37q-196 0 -302.5 95 t-106.5 253zM289 334q0 -98 66 -150.5t196 -52.5q75 0 139 16.5t91 31.5t40 28v268q-173 45 -284 45q-108 0 -178 -49.5t-70 -136.5zM362 1419q0 29 19.5 49.5t48.5 20.5q17 0 37 -8l276 -144q39 -20 39 -63q0 -29 -20 -49.5t-49 -20.5q-15 0 -41 13l-273 141q-37 19 -37 61 z" />
<glyph unicode="&#xe1;" d="M123 330q0 143 107 237.5t305 94.5q125 0 286 -44v84q0 123 -62 179.5t-194 56.5q-107 0 -243 -53q-50 -19 -84.5 1.5t-34.5 61.5q0 54 53 78q54 27 142 46.5t184 19.5q190 0 296.5 -94t106.5 -289v-545q0 -47 -35 -68q-53 -40 -169 -77t-249 -37q-196 0 -302.5 95 t-106.5 253zM289 334q0 -98 66 -150.5t196 -52.5q75 0 139 16.5t91 31.5t40 28v268q-173 45 -284 45q-108 0 -178 -49.5t-70 -136.5zM379 1274q0 44 37 63l278 144q20 8 35 8q29 0 49.5 -20.5t20.5 -49.5q0 -41 -39 -61l-277 -144q-17 -10 -37 -10q-29 0 -48 20t-19 50z" />
<glyph unicode="&#xe2;" d="M123 330q0 143 107 237.5t305 94.5q125 0 286 -44v84q0 123 -62 179.5t-194 56.5q-107 0 -243 -53q-50 -19 -84.5 1.5t-34.5 61.5q0 54 53 78q54 27 142 46.5t184 19.5q190 0 296.5 -94t106.5 -289v-545q0 -47 -35 -68q-53 -40 -169 -77t-249 -37q-196 0 -302.5 95 t-106.5 253zM289 334q0 -98 66 -150.5t196 -52.5q75 0 139 16.5t91 31.5t40 28v268q-173 45 -284 45q-108 0 -178 -49.5t-70 -136.5zM301 1247q0 36 29 58l190 143q36 25 62 25q7 0 12.5 -1t12 -4t10 -5t12.5 -7.5t12 -7.5l193 -143q30 -23 30 -58q0 -28 -20 -48.5 t-49 -20.5q-26 0 -47 16l-166 125l-166 -125q-21 -16 -45 -16q-30 0 -50 20.5t-20 48.5z" />
<glyph unicode="&#xe3;" d="M123 330q0 143 107 237.5t305 94.5q125 0 286 -44v84q0 123 -62 179.5t-194 56.5q-107 0 -243 -53q-50 -19 -84.5 1.5t-34.5 61.5q0 54 53 78q54 27 142 46.5t184 19.5q190 0 296.5 -94t106.5 -289v-545q0 -47 -35 -68q-53 -40 -169 -77t-249 -37q-196 0 -302.5 95 t-106.5 253zM281 1300q0 28 28 56q79 69 154 69q54 0 126 -36.5t101 -36.5q28 0 62.5 27.5t58.5 27.5q30 0 49 -20.5t19 -49.5q0 -30 -29 -55q-80 -70 -152 -70q-52 0 -127 37t-102 37q-28 0 -62.5 -27.5t-58.5 -27.5q-30 0 -48.5 20t-18.5 49zM289 334q0 -98 66 -150.5 t196 -52.5q75 0 139 16.5t91 31.5t40 28v268q-173 45 -284 45q-108 0 -178 -49.5t-70 -136.5z" />
<glyph unicode="&#xe4;" d="M123 330q0 143 107 237.5t305 94.5q125 0 286 -44v84q0 123 -62 179.5t-194 56.5q-107 0 -243 -53q-50 -19 -84.5 1.5t-34.5 61.5q0 54 53 78q54 27 142 46.5t184 19.5q190 0 296.5 -94t106.5 -289v-545q0 -47 -35 -68q-53 -40 -169 -77t-249 -37q-196 0 -302.5 95 t-106.5 253zM289 334q0 -98 66 -150.5t196 -52.5q75 0 139 16.5t91 31.5t40 28v268q-173 45 -284 45q-108 0 -178 -49.5t-70 -136.5zM328 1319q0 40 26 66t66 26q39 0 65.5 -26.5t26.5 -65.5q0 -38 -27 -65t-65 -27q-39 0 -65.5 26.5t-26.5 65.5zM651 1319q0 39 26.5 65.5 t65.5 26.5q40 0 66.5 -26t26.5 -66q0 -39 -27 -65.5t-66 -26.5q-38 0 -65 27t-27 65z" />
<glyph unicode="&#xe5;" d="M123 330q0 143 107 237.5t305 94.5q125 0 286 -44v84q0 123 -62 179.5t-194 56.5q-107 0 -243 -53q-50 -19 -84.5 1.5t-34.5 61.5q0 54 53 78q54 27 142 46.5t184 19.5q190 0 296.5 -94t106.5 -289v-545q0 -47 -35 -68q-53 -40 -169 -77t-249 -37q-196 0 -302.5 95 t-106.5 253zM289 334q0 -98 66 -150.5t196 -52.5q75 0 139 16.5t91 31.5t40 28v268q-173 45 -284 45q-108 0 -178 -49.5t-70 -136.5zM385 1358q0 79 58.5 137.5t138.5 58.5q81 0 138.5 -58t57.5 -138q0 -82 -57 -139.5t-139 -57.5q-80 0 -138.5 58t-58.5 139zM492 1358 q0 -38 26.5 -65t63.5 -27q38 0 64 27t26 65q0 37 -26 63.5t-64 26.5q-37 0 -63.5 -26.5t-26.5 -63.5z" />
<glyph unicode="&#xe6;" horiz-adv-x="1845" d="M123 332q0 142 107 236t305 94q123 0 284 -44v84q0 124 -61.5 180t-192.5 56q-102 0 -243 -53q-50 -19 -84.5 1.5t-34.5 61.5q0 54 53 78q54 26 147 46t179 20q242 0 342 -158q60 76 151.5 117t200.5 41q200 0 320 -124t120 -321v-61q0 -56 -30 -87.5t-91 -31.5h-612v-33 q0 -143 82 -222t221 -79q107 0 252 53q52 20 85.5 -3t33.5 -62q0 -48 -45 -74q-49 -29 -142 -47t-184 -18q-209 0 -336 127q-62 -46 -176.5 -86.5t-241.5 -40.5q-196 0 -302.5 95.5t-106.5 254.5zM289 334q0 -98 66 -150.5t196 -52.5q156 0 311 109q-46 108 -43 235 q-66 17 -100 24.5t-83.5 14t-98.5 6.5q-108 0 -178 -49.5t-70 -136.5zM983 606h545q23 0 26 25q9 139 -68.5 225t-209.5 86q-147 0 -222.5 -89.5t-70.5 -246.5z" />
<glyph unicode="&#xe7;" horiz-adv-x="1140" d="M150 395q-7 146 0 291q10 180 138 293t320 113q81 0 152.5 -22.5t118.5 -57t81.5 -76t50 -79t15.5 -66.5q0 -36 -22.5 -60t-55.5 -24q-56 0 -80 55q-34 86 -104 130t-154 44q-128 0 -207 -70.5t-88 -189.5q-3 -41 -3 -128.5t3 -141.5q11 -119 88 -194t207 -75 q84 0 155.5 44.5t106.5 129.5q25 56 80 56q33 0 55.5 -24t22.5 -60q0 -28 -14 -63t-45 -74t-73 -72.5t-105 -58t-134 -31.5l-28 -76q81 -6 130.5 -56.5t49.5 -125.5q0 -169 -252 -254q-34 -12 -65 4t-31 57q0 47 51 64q93 36 124.5 63.5t31.5 60.5q0 22 -17 42t-47 20 q-15 0 -32.5 -4t-30.5 -4q-33 0 -52 27.5t-6 60.5l45 125q-165 23 -268 135.5t-112 271.5z" />
<glyph unicode="&#xe8;" horiz-adv-x="1171" d="M150 422q-8 146 2 246q17 196 140 310t312 114q200 0 320 -124t120 -321v-61q0 -119 -120 -119h-613v-33q0 -142 83.5 -221.5t221.5 -79.5q102 0 250 53q52 20 85.5 -3t33.5 -62q0 -44 -45 -74q-48 -29 -142 -47t-184 -18q-209 0 -331 120t-133 320zM311 606h545 q24 0 27 25q9 139 -68 225t-209 86q-148 0 -224 -89.5t-71 -246.5zM360 1419q0 29 19.5 49.5t48.5 20.5q17 0 37 -8l276 -144q39 -20 39 -63q0 -29 -20 -49.5t-49 -20.5q-15 0 -41 13l-273 141q-37 19 -37 61z" />
<glyph unicode="&#xe9;" horiz-adv-x="1171" d="M150 422q-8 146 2 246q17 196 140 310t312 114q200 0 320 -124t120 -321v-61q0 -119 -120 -119h-613v-33q0 -142 83.5 -221.5t221.5 -79.5q102 0 250 53q52 20 85.5 -3t33.5 -62q0 -44 -45 -74q-48 -29 -142 -47t-184 -18q-209 0 -331 120t-133 320zM311 606h545 q24 0 27 25q9 139 -68 225t-209 86q-148 0 -224 -89.5t-71 -246.5zM422 1274q0 44 37 63l278 144q20 8 35 8q29 0 49.5 -20.5t20.5 -49.5q0 -41 -39 -61l-277 -144q-17 -10 -37 -10q-29 0 -48 20t-19 50z" />
<glyph unicode="&#xea;" horiz-adv-x="1171" d="M150 422q-8 146 2 246q17 196 140 310t312 114q200 0 320 -124t120 -321v-61q0 -119 -120 -119h-613v-33q0 -142 83.5 -221.5t221.5 -79.5q102 0 250 53q52 20 85.5 -3t33.5 -62q0 -44 -45 -74q-48 -29 -142 -47t-184 -18q-209 0 -331 120t-133 320zM309 1274q0 35 29 57 l190 144q34 24 62 24q20 0 59 -24l193 -144q30 -23 30 -57q0 -28 -20 -49t-49 -21q-24 0 -47 17l-166 125l-166 -125q-23 -17 -45 -17q-30 0 -50 21t-20 49zM311 606h545q24 0 27 25q9 139 -68 225t-209 86q-148 0 -224 -89.5t-71 -246.5z" />
<glyph unicode="&#xeb;" horiz-adv-x="1171" d="M150 422q-8 146 2 246q17 196 140 310t312 114q200 0 320 -124t120 -321v-61q0 -119 -120 -119h-613v-33q0 -142 83.5 -221.5t221.5 -79.5q102 0 250 53q52 20 85.5 -3t33.5 -62q0 -44 -45 -74q-48 -29 -142 -47t-184 -18q-209 0 -331 120t-133 320zM311 606h545 q24 0 27 25q9 139 -68 225t-209 86q-148 0 -224 -89.5t-71 -246.5zM346 1319q0 40 26 66t66 26q39 0 65.5 -26.5t26.5 -65.5q0 -38 -27 -65t-65 -27q-39 0 -65.5 26.5t-26.5 65.5zM670 1319q0 39 26.5 65.5t65.5 26.5q40 0 66 -26t26 -66q0 -39 -26.5 -65.5t-65.5 -26.5 q-38 0 -65 27t-27 65z" />
<glyph unicode="&#xec;" horiz-adv-x="559" d="M14 1419q0 29 19.5 49.5t48.5 20.5q17 0 37 -8l276 -144q39 -20 39 -63q0 -29 -20 -49.5t-49 -20.5q-15 0 -41 13l-273 141q-37 19 -37 61zM197 76v915q0 36 23.5 61t58.5 25q34 0 58.5 -25.5t24.5 -60.5v-915q0 -36 -23.5 -60t-59.5 -24q-34 0 -58 24.5t-24 59.5z" />
<glyph unicode="&#xed;" horiz-adv-x="559" d="M131 1274q0 44 37 63l278 144q20 8 35 8q29 0 49.5 -20.5t20.5 -49.5q0 -41 -39 -61l-276 -144q-17 -10 -37 -10q-29 0 -48.5 20.5t-19.5 49.5zM197 76v915q0 36 23.5 61t58.5 25q34 0 58.5 -25.5t24.5 -60.5v-915q0 -36 -23.5 -60t-59.5 -24q-34 0 -58 24.5t-24 59.5z " />
<glyph unicode="&#xee;" horiz-adv-x="559" d="M8 1274q0 35 29 57l190 144q34 24 62 24q20 0 59 -24l193 -144q30 -23 30 -57q0 -28 -20 -49t-49 -21q-24 0 -47 17l-166 125l-166 -125q-23 -17 -45 -17q-30 0 -50 21t-20 49zM197 76v915q0 36 23.5 61t58.5 25q34 0 58.5 -25.5t24.5 -60.5v-915q0 -36 -23.5 -60 t-59.5 -24q-34 0 -58 24.5t-24 59.5z" />
<glyph unicode="&#xef;" horiz-adv-x="559" d="M35 1319q0 40 26 66t66 26q39 0 65.5 -26.5t26.5 -65.5q0 -38 -27 -65t-65 -27q-39 0 -65.5 26.5t-26.5 65.5zM197 76v915q0 36 23.5 61t58.5 25q34 0 58.5 -25.5t24.5 -60.5v-915q0 -36 -23.5 -60t-59.5 -24q-34 0 -58 24.5t-24 59.5zM358 1319q0 39 27 65.5t66 26.5 q40 0 66 -26t26 -66q0 -39 -26.5 -65.5t-65.5 -26.5q-38 0 -65.5 27t-27.5 65z" />
<glyph unicode="&#xf0;" horiz-adv-x="1220" d="M150 385q-6 122 0 244q12 177 134.5 286t307.5 109q170 0 287 -111q0 172 -91 279l-145 -66q-29 -13 -59 -3t-41 36q-12 29 -1 58.5t40 42.5l80 36l-48 27q-36 19 -43 55.5t11 61.5q15 25 46 32t60 -8q88 -48 139 -94l117 53q26 13 56 3t42 -40q12 -28 1 -56t-37 -40 l-72 -33q108 -156 108 -426l-2 -415q0 -192 -127.5 -313t-318.5 -121q-183 0 -307.5 114t-136.5 289zM319 395q9 -114 84 -184t191 -70q117 0 191 70t85 184q8 87 0 221q-8 110 -82 179t-194 69q-119 0 -193 -69t-82 -179q-8 -134 0 -221z" />
<glyph unicode="&#xf1;" horiz-adv-x="1247" d="M186 78v829q0 47 37 74q55 41 164.5 76t251.5 35q214 0 325 -108t111 -310v-596q0 -37 -23 -61.5t-59 -24.5q-34 0 -59 25t-25 61v588q0 133 -77.5 200.5t-196.5 67.5q-81 0 -159.5 -20.5t-123.5 -47.5v-788q0 -37 -23.5 -61.5t-58.5 -24.5q-34 0 -59 25t-25 61z M319 1300q0 27 29 56q79 69 154 69q54 0 126 -36.5t101 -36.5q28 0 62.5 27.5t58.5 27.5q30 0 49 -20.5t19 -49.5q0 -30 -29 -55q-80 -70 -152 -70q-52 0 -127 37t-102 37q-28 0 -62.5 -27.5t-58.5 -27.5q-30 0 -49 20t-19 49z" />
<glyph unicode="&#xf2;" horiz-adv-x="1212" d="M150 395q-7 144 0 291q10 179 138 292.5t318 113.5q191 0 319 -113t138 -293q11 -147 0 -291q-11 -180 -139 -296.5t-318 -116.5q-189 0 -317 116.5t-139 296.5zM315 406q11 -121 89.5 -195t201.5 -74t201.5 74t89.5 195q8 132 0 268q-8 116 -86 189t-205 73t-205 -73 t-86 -189q-8 -136 0 -268zM387 1419q0 29 19.5 49.5t48.5 20.5q17 0 37 -8l276 -144q39 -20 39 -63q0 -29 -20.5 -49.5t-49.5 -20.5q-15 0 -41 13l-272 141q-37 19 -37 61z" />
<glyph unicode="&#xf3;" horiz-adv-x="1212" d="M150 395q-7 144 0 291q10 179 138 292.5t318 113.5q191 0 319 -113t138 -293q11 -147 0 -291q-11 -180 -139 -296.5t-318 -116.5q-189 0 -317 116.5t-139 296.5zM315 406q11 -121 89.5 -195t201.5 -74t201.5 74t89.5 195q8 132 0 268q-8 116 -86 189t-205 73t-205 -73 t-86 -189q-8 -136 0 -268zM401 1274q0 44 37 63l279 144q20 8 35 8q29 0 49 -20.5t20 -49.5q0 -41 -39 -61l-276 -144q-17 -10 -37 -10q-29 0 -48.5 20.5t-19.5 49.5z" />
<glyph unicode="&#xf4;" horiz-adv-x="1212" d="M150 395q-7 144 0 291q10 179 138 292.5t318 113.5q191 0 319 -113t138 -293q11 -147 0 -291q-11 -180 -139 -296.5t-318 -116.5q-189 0 -317 116.5t-139 296.5zM315 406q11 -121 89.5 -195t201.5 -74t201.5 74t89.5 195q8 132 0 268q-8 116 -86 189t-205 73t-205 -73 t-86 -189q-8 -136 0 -268zM326 1272q0 36 28 57l191 144q34 24 61 24q21 0 60 -24l192 -144q31 -23 31 -57q0 -28 -20.5 -49t-49.5 -21q-24 0 -47 17l-166 124l-166 -124q-23 -17 -45 -17q-30 0 -49.5 20.5t-19.5 49.5z" />
<glyph unicode="&#xf5;" horiz-adv-x="1212" d="M150 395q-7 144 0 291q10 179 138 292.5t318 113.5q191 0 319 -113t138 -293q11 -147 0 -291q-11 -180 -139 -296.5t-318 -116.5q-189 0 -317 116.5t-139 296.5zM305 1300q0 27 29 56q79 69 153 69q54 0 126.5 -36.5t101.5 -36.5q28 0 62.5 27.5t58.5 27.5 q30 0 48.5 -20.5t18.5 -49.5q0 -30 -29 -55q-80 -70 -151 -70q-52 0 -127 37t-102 37q-28 0 -62.5 -27.5t-58.5 -27.5q-30 0 -49 20t-19 49zM315 406q11 -121 89.5 -195t201.5 -74t201.5 74t89.5 195q8 132 0 268q-8 116 -86 189t-205 73t-205 -73t-86 -189q-8 -136 0 -268z " />
<glyph unicode="&#xf6;" horiz-adv-x="1212" d="M150 395q-7 144 0 291q10 179 138 292.5t318 113.5q191 0 319 -113t138 -293q11 -147 0 -291q-11 -180 -139 -296.5t-318 -116.5q-189 0 -317 116.5t-139 296.5zM315 406q11 -121 89.5 -195t201.5 -74t201.5 74t89.5 195q8 132 0 268q-8 116 -86 189t-205 73t-205 -73 t-86 -189q-8 -136 0 -268zM352 1319q0 40 26 66t66 26q39 0 66 -26.5t27 -65.5q0 -38 -27.5 -65t-65.5 -27q-39 0 -65.5 26.5t-26.5 65.5zM676 1319q0 39 26.5 65.5t65.5 26.5q40 0 66 -26t26 -66q0 -39 -26.5 -65.5t-65.5 -26.5q-38 0 -65 27t-27 65z" />
<glyph unicode="&#xf7;" horiz-adv-x="1286" d="M123 717q0 35 24.5 58.5t59.5 23.5h872q35 0 59.5 -23.5t24.5 -58.5q0 -33 -25 -56.5t-59 -23.5h-872q-35 0 -59.5 23t-24.5 57zM535 336q0 44 32 76t76 32q43 0 76 -32t33 -76q0 -43 -33 -75t-76 -32q-44 0 -76 32t-32 75zM535 1100q0 43 32 74.5t76 31.5q43 0 76 -32 t33 -74q0 -44 -33 -76.5t-76 -32.5q-44 0 -76 32.5t-32 76.5z" />
<glyph unicode="&#xf8;" horiz-adv-x="1214" d="M130 67q-1 33 20 56l61 70q-55 88 -61 202q-7 144 0 291q10 179 138 292.5t318 113.5q169 0 295 -95l47 54q21 26 53.5 28.5t55.5 -18.5q24 -20 26.5 -53t-18.5 -58l-61 -69q53 -92 59 -195q11 -147 0 -291q-11 -180 -139 -296.5t-318 -116.5q-172 0 -295 96l-47 -55 q-20 -25 -52.5 -28t-57.5 19q-23 20 -24 53zM315 406q3 -39 15 -74l467 542q-78 62 -191 62q-127 0 -205 -73t-86 -189q-8 -136 0 -268zM416 199q78 -62 190 -62q123 0 201.5 74t89.5 195q8 132 0 268q-3 32 -12 67z" />
<glyph unicode="&#xf9;" horiz-adv-x="1247" d="M172 399v592q0 36 23.5 61t58.5 25t59.5 -25.5t24.5 -60.5v-594q0 -120 72.5 -189t201.5 -69q168 0 283 76v776q0 36 23.5 61t58.5 25q34 0 59 -25.5t25 -60.5v-819q0 -46 -35 -68q-173 -122 -414 -122q-200 0 -320 110t-120 307zM408 1419q0 30 19 50t48 20q17 0 37 -8 l276 -144q39 -20 39 -63q0 -29 -20 -49.5t-49 -20.5q-15 0 -41 13l-273 141q-36 19 -36 61z" />
<glyph unicode="&#xfa;" horiz-adv-x="1247" d="M172 399v592q0 36 23.5 61t58.5 25t59.5 -25.5t24.5 -60.5v-594q0 -120 72.5 -189t201.5 -69q168 0 283 76v776q0 36 23.5 61t58.5 25q34 0 59 -25.5t25 -60.5v-819q0 -46 -35 -68q-173 -122 -414 -122q-200 0 -320 110t-120 307zM426 1274q0 44 37 63l278 144q20 8 35 8 q29 0 49.5 -20.5t20.5 -49.5q0 -41 -39 -61l-277 -144q-17 -10 -36 -10q-29 0 -48.5 20.5t-19.5 49.5z" />
<glyph unicode="&#xfb;" horiz-adv-x="1247" d="M172 399v592q0 36 23.5 61t58.5 25t59.5 -25.5t24.5 -60.5v-594q0 -120 72.5 -189t201.5 -69q168 0 283 76v776q0 36 23.5 61t58.5 25q34 0 59 -25.5t25 -60.5v-819q0 -46 -35 -68q-173 -122 -414 -122q-200 0 -320 110t-120 307zM344 1274q0 35 29 57l190 144 q34 24 62 24q20 0 59 -24l193 -144q30 -23 30 -57q0 -28 -20 -49t-49 -21q-24 0 -47 17l-166 125l-166 -125q-23 -17 -45 -17q-30 0 -50 21t-20 49z" />
<glyph unicode="&#xfc;" horiz-adv-x="1247" d="M172 399v592q0 36 23.5 61t58.5 25t59.5 -25.5t24.5 -60.5v-594q0 -120 72.5 -189t201.5 -69q168 0 283 76v776q0 36 23.5 61t58.5 25q34 0 59 -25.5t25 -60.5v-819q0 -46 -35 -68q-173 -122 -414 -122q-200 0 -320 110t-120 307zM373 1319q0 40 26 66t66 26 q39 0 65.5 -26.5t26.5 -65.5q0 -38 -27 -65t-65 -27q-39 0 -65.5 26.5t-26.5 65.5zM696 1319q0 39 26.5 65.5t65.5 26.5q40 0 66.5 -26t26.5 -66q0 -39 -26.5 -65.5t-66.5 -26.5q-38 0 -65 27t-27 65z" />
<glyph unicode="&#xfd;" horiz-adv-x="1048" d="M55 956q-18 45 7 82t71 37q51 0 78 -59l317 -731q3 -6 8.5 -6t8.5 6l289 725q23 65 81 65q47 0 72 -38t6 -81l-385 -933q-57 -137 -135.5 -243t-148.5 -147q-40 -24 -74 -24q-33 0 -57.5 22t-24.5 56q0 49 39 71q72 41 135.5 119t101.5 191zM418 1276q0 44 37 63l278 144 q20 8 35 8q29 0 49.5 -20.5t20.5 -49.5q0 -41 -39 -61l-277 -143q-18 -11 -37 -11q-29 0 -48 20t-19 50z" />
<glyph unicode="&#xfe;" horiz-adv-x="1230" d="M188 -311v1681q0 35 23.5 59.5t58.5 24.5q34 0 59 -24.5t25 -59.5v-342q149 64 289 64q195 0 308 -107t128 -301q5 -56 5 -146.5t-5 -148.5q-15 -193 -131 -300t-317 -107q-139 0 -277 65v-358q0 -36 -24 -61t-60 -25q-34 0 -58 25.5t-24 60.5zM354 213 q42 -27 117.5 -51.5t153.5 -24.5q271 0 286 260q10 152 0 269q-21 270 -278 270q-71 0 -155.5 -27.5t-123.5 -56.5v-639z" />
<glyph unicode="&#xff;" horiz-adv-x="1048" d="M55 956q-18 45 7 82t71 37q51 0 78 -59l317 -731q3 -6 8.5 -6t8.5 6l289 725q23 65 81 65q47 0 72 -38t6 -81l-385 -933q-57 -137 -135.5 -243t-148.5 -147q-40 -24 -74 -24q-33 0 -57.5 22t-24.5 56q0 49 39 71q72 41 135.5 119t101.5 191zM283 1319q0 40 26 66t66 26 q39 0 65.5 -26.5t26.5 -65.5q0 -38 -27 -65t-65 -27q-39 0 -65.5 26.5t-26.5 65.5zM606 1319q0 39 26.5 65.5t65.5 26.5q40 0 66.5 -26t26.5 -66q0 -39 -26.5 -65.5t-66.5 -26.5q-38 0 -65 27t-27 65z" />
<glyph unicode="&#x152;" horiz-adv-x="2189" d="M141 588q-6 123 0 246q7 132 53 244t126.5 196.5t202 132t270.5 47.5q105 0 247 -9t201 -9h721q36 0 61 -23.5t25 -58.5q0 -33 -26 -56.5t-60 -23.5h-690v-471h674q34 0 58 -22.5t24 -57.5q0 -32 -24.5 -55t-57.5 -23h-674v-483h694q34 0 60 -23.5t26 -56.5 q0 -35 -25 -58.5t-61 -23.5h-774q-27 0 -157.5 -10t-243.5 -10q-150 0 -271 46t-201 128t-125.5 192t-52.5 242zM309 594q11 -207 134 -330t350 -123q172 0 313 19v434v682q-156 16 -313 16q-226 0 -349.5 -127.5t-134.5 -337.5q-6 -115 0 -233z" />
<glyph unicode="&#x153;" horiz-adv-x="1925" d="M150 395q-7 144 0 291q10 179 138 292.5t318 113.5q121 0 219.5 -49.5t159.5 -137.5q59 90 155 138.5t218 48.5q196 0 315 -124t119 -321v-61q0 -56 -29.5 -87.5t-89.5 -31.5h-614v-33q0 -143 85 -222t222 -79q101 0 246 53q52 20 86.5 -3t34.5 -62q0 -48 -45 -74 q-48 -30 -140.5 -47.5t-181.5 -17.5q-264 0 -385 186q-61 -88 -158 -137t-217 -49q-190 0 -317.5 117t-138.5 296zM315 406q11 -121 89.5 -195t201.5 -74t201.5 74t89.5 195q8 132 0 268q-8 116 -86 189t-205 73t-205 -73t-86 -189q-8 -136 0 -268zM1059 606h545q23 0 26 25 q9 139 -67.5 225t-208.5 86q-148 0 -224 -89.5t-71 -246.5z" />
<glyph unicode="&#x178;" horiz-adv-x="1325" d="M33 1360q0 33 25.5 57.5t60.5 24.5q40 0 65 -31l478 -598l479 598q26 33 65 33q35 0 60.5 -25t25.5 -59q0 -32 -20 -55l-471 -578q-3 -4 -15 -18t-15 -18t-10 -15.5t-9 -19.5t-4.5 -20t-2.5 -26v-532q0 -36 -23.5 -61t-59.5 -25q-34 0 -59 26t-25 60v532q0 12 -1 22 t-4.5 20t-5.5 15.5t-9.5 16t-9.5 13.5t-12.5 16t-13.5 16l-469 574q-20 23 -20 57zM408 1546q0 40 26 66t66 26q39 0 65.5 -26.5t26.5 -65.5q0 -38 -27 -65t-65 -27q-39 0 -65.5 26.5t-26.5 65.5zM731 1546q0 39 26.5 65.5t65.5 26.5q40 0 66 -26t26 -66q0 -39 -26.5 -65.5 t-65.5 -26.5q-38 0 -65 27t-27 65z" />
<glyph unicode="&#x2c6;" horiz-adv-x="737" d="M86 1606q0 35 29 57l190 143q36 25 62 25q7 0 12.5 -1t12 -4t10 -5t12.5 -7.5t12 -7.5l192 -143q31 -23 31 -57q0 -28 -20 -49t-49 -21q-27 0 -48 16l-165 125l-166 -125q-21 -16 -45 -16q-30 0 -50 21t-20 49z" />
<glyph unicode="&#x2dc;" horiz-adv-x="737" d="M74 1624q0 27 28 55q80 70 154 70q54 0 126 -37t101 -37q28 0 62.5 28t58.5 28q30 0 49 -20.5t19 -49.5q0 -30 -29 -55q-80 -70 -151 -70q-52 0 -127.5 37t-102.5 37q-28 0 -62.5 -28t-58.5 -28q-30 0 -48.5 20.5t-18.5 49.5z" />
<glyph unicode="&#x2000;" horiz-adv-x="967" />
<glyph unicode="&#x2001;" horiz-adv-x="1935" />
<glyph unicode="&#x2002;" horiz-adv-x="967" />
<glyph unicode="&#x2003;" horiz-adv-x="1935" />
<glyph unicode="&#x2004;" horiz-adv-x="645" />
<glyph unicode="&#x2005;" horiz-adv-x="483" />
<glyph unicode="&#x2006;" horiz-adv-x="322" />
<glyph unicode="&#x2007;" horiz-adv-x="322" />
<glyph unicode="&#x2008;" horiz-adv-x="241" />
<glyph unicode="&#x2009;" horiz-adv-x="387" />
<glyph unicode="&#x200a;" horiz-adv-x="107" />
<glyph unicode="&#x2010;" horiz-adv-x="694" d="M104 586q0 35 25.5 59.5t60.5 24.5h314q35 0 60.5 -24.5t25.5 -59.5t-25 -58.5t-61 -23.5h-314q-35 0 -60.5 24t-25.5 58z" />
<glyph unicode="&#x2011;" horiz-adv-x="694" d="M104 586q0 35 25.5 59.5t60.5 24.5h314q35 0 60.5 -24.5t25.5 -59.5t-25 -58.5t-61 -23.5h-314q-35 0 -60.5 24t-25.5 58z" />
<glyph unicode="&#x2012;" horiz-adv-x="694" d="M104 586q0 35 25.5 59.5t60.5 24.5h314q35 0 60.5 -24.5t25.5 -59.5t-25 -58.5t-61 -23.5h-314q-35 0 -60.5 24t-25.5 58z" />
<glyph unicode="&#x2013;" horiz-adv-x="1222" d="M109 586q0 35 25.5 59.5t60.5 24.5h833q35 0 59.5 -24.5t24.5 -59.5q0 -34 -24.5 -58t-59.5 -24h-833q-35 0 -60.5 24t-25.5 58z" />
<glyph unicode="&#x2014;" horiz-adv-x="1968" d="M109 586q0 35 25.5 59.5t60.5 24.5h1579q35 0 59.5 -24.5t24.5 -59.5q0 -34 -25 -58t-59 -24h-1579q-35 0 -60.5 24t-25.5 58z" />
<glyph unicode="&#x2018;" horiz-adv-x="438" d="M121 1075v86q0 126 55 223q28 52 80 52q34 0 57 -21.5t23 -52.5q0 -19 -13 -43.5t-26.5 -63t-13.5 -90.5v-90q0 -34 -24 -57t-58 -23t-57 23t-23 57z" />
<glyph unicode="&#x2019;" horiz-adv-x="438" d="M115 1077q0 16 8.5 35.5t18 36.5t18 50.5t8.5 74.5v90q0 34 24 57t58 23t57 -23t23 -57v-86q0 -125 -56 -223q-28 -51 -79 -51q-34 0 -57 21t-23 52z" />
<glyph unicode="&#x201a;" horiz-adv-x="438" d="M88 -123q0 19 13 43.5t26.5 63t13.5 90.5v88q0 35 23.5 58.5t56.5 23.5q35 0 58.5 -23.5t23.5 -58.5v-84q0 -128 -57 -223q-28 -52 -80 -52q-32 0 -55 21.5t-23 52.5z" />
<glyph unicode="&#x201c;" horiz-adv-x="729" d="M125 1075v86q0 128 57 223q25 52 78 52q34 0 57 -21.5t23 -52.5q0 -19 -13 -43.5t-26.5 -63t-13.5 -90.5v-90q0 -34 -24 -57t-58 -23t-57 23t-23 57zM408 1075v86q0 126 55 223q28 52 80 52q34 0 57 -21.5t23 -52.5q0 -19 -13.5 -43.5t-27 -63t-13.5 -90.5v-90 q0 -34 -24 -57t-58 -23t-56.5 23t-22.5 57z" />
<glyph unicode="&#x201d;" horiz-adv-x="729" d="M119 1077q0 16 8.5 35.5t18 36.5t18 50.5t8.5 74.5v90q0 34 24 57t58 23t57 -23t23 -57v-86q0 -126 -55 -223q-28 -51 -80 -51q-34 0 -57 21t-23 52zM401 1077q0 19 13.5 43.5t27 63t13.5 90.5v90q0 34 24 57t58 23t56.5 -23t22.5 -57v-86q0 -126 -55 -223 q-28 -51 -80 -51q-34 0 -57 21t-23 52z" />
<glyph unicode="&#x201e;" horiz-adv-x="729" d="M119 -123q0 16 8.5 35.5t18 36.5t18 50.5t8.5 74.5v88q0 35 24 58.5t58 23.5t57 -23.5t23 -58.5v-84q0 -126 -55 -223q-28 -52 -80 -52q-34 0 -57 21.5t-23 52.5zM401 -123q0 19 13.5 43.5t27 63t13.5 90.5v88q0 35 24 58.5t58 23.5t56.5 -23.5t22.5 -58.5v-84 q0 -126 -55 -223q-28 -52 -80 -52q-34 0 -57 21.5t-23 52.5z" />
<glyph unicode="&#x2022;" horiz-adv-x="966" d="M225 717q0 106 76 182t182 76t182 -76t76 -182t-76 -182t-182 -76t-182 76t-76 182z" />
<glyph unicode="&#x2026;" horiz-adv-x="1314" d="M135 68v110q0 35 24.5 60.5t59.5 25.5t59.5 -25.5t24.5 -60.5v-110q0 -36 -24 -61t-60 -25q-34 0 -59 25.5t-25 60.5zM575 68v110q0 35 24.5 60.5t59.5 25.5t59.5 -25.5t24.5 -60.5v-110q0 -36 -24 -61t-60 -25q-34 0 -59 25.5t-25 60.5zM1012 68v110q0 35 24.5 60.5 t59.5 25.5t59.5 -25.5t24.5 -60.5v-110q0 -36 -24 -61t-60 -25q-34 0 -59 25.5t-25 60.5z" />
<glyph unicode="&#x202f;" horiz-adv-x="387" />
<glyph unicode="&#x2039;" horiz-adv-x="731" d="M98 719q0 80 90 153l248 197q28 22 60.5 19t54.5 -29t18 -59.5t-30 -55.5l-252 -196q-19 -14 -19 -29t19 -29l252 -198q26 -20 30 -54.5t-18 -60.5t-54.5 -28.5t-60.5 20.5l-248 196q-90 76 -90 154z" />
<glyph unicode="&#x203a;" horiz-adv-x="731" d="M163.5 438.5q3.5 33.5 29.5 53.5l251 198q19 14 19 29t-19 29l-251 196q-26 22 -29.5 54.5t18.5 60.5q22 26 54 29t61 -19l246 -197q90 -73 90 -153q0 -84 -90 -154l-246 -196q-29 -23 -61 -20.5t-54 28.5q-22 28 -18.5 61.5z" />
<glyph unicode="&#x205f;" horiz-adv-x="483" />
<glyph unicode="&#x20ac;" horiz-adv-x="1331" d="M100 592q0 33 22.5 54.5t55.5 21.5h94v100h-94q-33 0 -55.5 21t-22.5 53t23 54t55 22h98q21 239 160 386.5t373 147.5q267 0 418 -160q24 -24 24 -57q0 -34 -23 -57t-57 -23t-69 35q-63 59 -127 81.5t-166 22.5q-162 0 -254.5 -101.5t-108.5 -274.5h375q33 0 56.5 -22 t23.5 -54t-23.5 -53t-56.5 -21h-383v-100h383q33 0 56.5 -21.5t23.5 -54.5q0 -32 -23.5 -53t-56.5 -21h-375q16 -175 107.5 -277t255.5 -102q101 0 165 23.5t128 81.5q37 37 69 37q33 0 56.5 -23.5t23.5 -56.5q0 -36 -24 -60q-150 -159 -418 -159q-234 0 -372 147t-161 389 h-98q-33 0 -55.5 21t-22.5 53z" />
<glyph unicode="&#x2122;" horiz-adv-x="1300" d="M113 1368q0 20 13 32.5t32 12.5h352q18 0 29.5 -12.5t11.5 -32.5q0 -19 -12 -31t-29 -12h-131v-381q0 -19 -13.5 -31t-31.5 -12q-20 0 -31.5 12t-11.5 31v381h-133q-19 0 -32 12t-13 31zM551 956l67 394q6 34 26.5 51.5t49.5 17.5q27 0 47 -16t27 -43l90 -354l92 354 q6 26 27 42.5t47 16.5q62 0 74 -69l69 -394q7 -48 -32 -57q-23 -4 -38 7t-18 32l-59 373l-92 -348q-17 -62 -70 -62q-51 0 -67 62l-93 346l-59 -371q-3 -21 -17.5 -32t-37.5 -7q-19 3 -27.5 19t-5.5 38z" />
<glyph unicode="&#xe000;" horiz-adv-x="1075" d="M0 0v1075h1075v-1075h-1075z" />
<glyph unicode="&#xfb02;" horiz-adv-x="1355" d="M76 967q0 32 23.5 53.5t56.5 21.5h71v95q0 154 83 243.5t239 89.5q109 0 180 -22q66 -18 66 -78q0 -29 -21 -51.5t-59 -22.5q-20 0 -72.5 9.5t-89.5 9.5q-160 0 -160 -191v-82h287q33 0 56.5 -21.5t23.5 -53.5t-23.5 -54t-56.5 -22h-287v-813q0 -37 -23.5 -61.5 t-58.5 -24.5t-59.5 24.5t-24.5 61.5v813h-71q-33 0 -56.5 22t-23.5 54zM1001 78v1292q0 35 23.5 59.5t58.5 24.5q34 0 59 -24.5t25 -59.5v-1292q0 -37 -23.5 -61.5t-60.5 -24.5q-34 0 -58 25t-24 61z" />
</font>
</defs>
</svg>
